  0
SECTION
  2
HEADER
  9
$ACADVER
  1
AC1015
  9
$ACADMAINTVER
 70
     6
  9
$DWGCODEPAGE
  3
ANSI_1252
  9
$INSBASE
 10
0.0
 20
0.0
 30
0.0
  9
$EXTMIN
 10
-0.5
 20
-0.5
 30
-0.5
  9
$EXTMAX
 10
5.0
 20
5.0
 30
5.0
  9
$LIMMIN
 10
-0.5
 20
-0.5
  9
$LIMMAX
 10
5.0
 20
5.0
  9
$ORTHOMODE
 70
     0
  9
$REGENMODE
 70
     1
  9
$FILLMODE
 70
     1
  9
$QTEXTMODE
 70
     0
  9
$MIRRTEXT
 70
     1
  9
$LTSCALE
 40
1.0
  9
$ATTMODE
 70
     1
  9
$TEXTSIZE
 40
0.2
  9
$TRACEWID
 40
0.05
  9
$TEXTSTYLE
  7
Standard
  9
$CLAYER
  8
0
  9
$CELTYPE
  6
Continuous
  9
$CECOLOR
 62
   256
  9
$CELTSCALE
 40
1.0
  9
$DISPSILH
 70
     0
  9
$DIMSCALE
 40
1.0
  9
$DIMASZ
 40
0.18
  9
$DIMEXO
 40
0.0625
  9
$DIMDLI
 40
0.38
  9
$DIMRND
 40
0.0
  9
$DIMDLE
 40
0.0
  9
$DIMEXE
 40
0.18
  9
$DIMTP
 40
0.0
  9
$DIMTM
 40
0.0
  9
$DIMTXT
 40
0.18
  9
$DIMCEN
 40
0.09
  9
$DIMTSZ
 40
0.0
  9
$DIMTOL
 70
     0
  9
$DIMLIM
 70
     0
  9
$DIMTIH
 70
     1
  9
$DIMTOH
 70
     1
  9
$DIMSE1
 70
     0
  9
$DIMSE2
 70
     0
  9
$DIMTAD
 70
     0
  9
$DIMZIN
 70
     0
  9
$DIMBLK
  1

  9
$DIMASO
 70
     1
  9
$DIMSHO
 70
     1
  9
$DIMPOST
  1

  9
$DIMAPOST
  1

  9
$DIMALT
 70
     0
  9
$DIMALTD
 70
     2
  9
$DIMALTF
 40
25.4
  9
$DIMLFAC
 40
1.0
  9
$DIMTOFL
 70
     0
  9
$DIMTVP
 40
0.0
  9
$DIMTIX
 70
     0
  9
$DIMSOXD
 70
     0
  9
$DIMSAH
 70
     0
  9
$DIMBLK1
  1

  9
$DIMBLK2
  1

  9
$DIMSTYLE
  2
Standard
  9
$DIMCLRD
 70
     0
  9
$DIMCLRE
 70
     0
  9
$DIMCLRT
 70
     0
  9
$DIMTFAC
 40
1.0
  9
$DIMGAP
 40
0.09
  9
$DIMJUST
 70
     0
  9
$DIMSD1
 70
     0
  9
$DIMSD2
 70
     0
  9
$DIMTOLJ
 70
     1
  9
$DIMTZIN
 70
     0
  9
$DIMALTZ
 70
     0
  9
$DIMALTTZ
 70
     0
  9
$DIMUPT
 70
     0
  9
$DIMDEC
 70
     4
  9
$DIMTDEC
 70
     4
  9
$DIMALTU
 70
     2
  9
$DIMALTTD
 70
     2
  9
$DIMTXSTY
  7
Standard
  9
$DIMAUNIT
 70
     0
  9
$DIMADEC
 70
     0
  9
$DIMALTRND
 40
0.0
  9
$DIMAZIN
 70
     0
  9
$DIMDSEP
 70
     0
  9
$DIMATFIT
 70
     3
  9
$DIMFRAC
 70
     0
  9
$DIMLDRBLK
  1

  9
$DIMLUNIT
 70
     2
  9
$DIMLWD
 70
     0
  9
$DIMLWE
 70
     0
  9
$DIMTMOVE
 70
     0
  9
$LUNITS
 70
     2
  9
$LUPREC
 70
     4
  9
$SKETCHINC
 40
0.1
  9
$FILLETRAD
 40
0.0
  9
$AUNITS
 70
     0
  9
$AUPREC
 70
     0
  9
$MENU
  1
acad
  9
$ELEVATION
 40
0.0
  9
$PELEVATION
 40
0.0
  9
$THICKNESS
 40
0.0
  9
$LIMCHECK
 70
     0
  9
$CHAMFERA
 40
0.0
  9
$CHAMFERB
 40
0.0
  9
$CHAMFERC
 40
0.0
  9
$CHAMFERD
 40
0.0
  9
$SKPOLY
 70
     0
  9
$TDCREATE
 40
0.000000000
  9
$TDUCREATE
 40
0.000000000
  9
$TDUPDATE
 40
0.000000000
  9
$TDUUPDATE
 40
0.000000000
  9
$TDINDWG
 40
0.0000000000
  9
$TDUSRTIMER
 40
0.0000000000
  9
$USRTIMER
 70
     1
  9
$ANGBASE
 50
0.0
  9
$ANGDIR
 70
     0
  9
$PDMODE
 70
     0
  9
$PDSIZE
 40
0.0
  9
$PLINEWID
 40
0.0
  9
$SPLFRAME
 70
     0
  9
$SPLINETYPE
 70
     6
  9
$SPLINESEGS
 70
     8
  9
$HANDSEED
  5
104
  9
$SURFTAB1
 70
     6
  9
$SURFTAB2
 70
     6
  9
$SURFTYPE
 70
     6
  9
$SURFU
 70
     6
  9
$SURFV
 70
     6
  9
$UCSBASE
  2

  9
$UCSNAME
  2

  9
$UCSORG
 10
0.0
 20
0.0
 30
0.0
  9
$UCSXDIR
 10
1.0
 20
0.0
 30
0.0
  9
$UCSYDIR
 10
0.0
 20
1.0
 30
0.0
  9
$UCSORTHOREF
  2

  9
$UCSORTHOVIEW
 70
     0
  9
$UCSORGTOP
 10
0.0
 20
0.0
 30
0.0
  9
$UCSORGBOTTOM
 10
0.0
 20
0.0
 30
0.0
  9
$UCSORGLEFT
 10
0.0
 20
0.0
 30
0.0
  9
$UCSORGRIGHT
 10
0.0
 20
0.0
 30
0.0
  9
$UCSORGFRONT
 10
0.0
 20
0.0
 30
0.0
  9
$UCSORGBACK
 10
0.0
 20
0.0
 30
0.0
  9
$PUCSBASE
  2

  9
$PUCSNAME
  2

  9
$PUCSORG
 10
0.0
 20
0.0
 30
0.0
  9
$PUCSXDIR
 10
1.0
 20
0.0
 30
0.0
  9
$PUCSYDIR
 10
0.0
 20
1.0
 30
0.0
  9
$PUCSORTHOREF
  2

  9
$PUCSORTHOVIEW
 70
     0
  9
$PUCSORGTOP
 10
0.0
 20
0.0
 30
0.0
  9
$PUCSORGBOTTOM
 10
0.0
 20
0.0
 30
0.0
  9
$PUCSORGLEFT
 10
0.0
 20
0.0
 30
0.0
  9
$PUCSORGRIGHT
 10
0.0
 20
0.0
 30
0.0
  9
$PUCSORGFRONT
 10
0.0
 20
0.0
 30
0.0
  9
$PUCSORGBACK
 10
0.0
 20
0.0
 30
0.0
  9
$USERI1
 70
     0
  9
$USERI2
 70
     0
  9
$USERI3
 70
     0
  9
$USERI4
 70
     0
  9
$USERI5
 70
     0
  9
$USERR1
 40
0.0
  9
$USERR2
 40
0.0
  9
$USERR3
 40
0.0
  9
$USERR4
 40
0.0
  9
$USERR5
 40
0.0
  9
$WORLDVIEW
 70
     1
  9
$SHADEDGE
 70
     3
  9
$SHADEDIF
 70
    70
  9
$TILEMODE
 70
     0
  9
$MAXACTVP
 70
    16
  9
$PINSBASE
 10
0.0
 20
0.0
 30
0.0
  9
$PLIMCHECK
 70
     0
  9
$PEXTMIN
 10
-0.5
 20
-0.5
 30
-0.5
  9
$PEXTMAX
 10
5.0
 20
5.0
 30
5.0
  9
$PLIMMIN
 10
-0.5
 20
-0.5
  9
$PLIMMAX
 10
5.0
 20
5.0
  9
$UNITMODE
 70
     0
  9
$VISRETAIN
 70
     0
  9
$PLINEGEN
 70
     1
  9
$PSLTSCALE
 70
     0
  9
$TREEDEPTH
 70
  3020
  9
$CMLSTYLE
  2
Standard
  9
$CMLJUST
 70
     0
  9
$CMLSCALE
 40
1.0
  9
$PROXYGRAPHICS
 70
     0
  9
$MEASUREMENT
 70
     0
  9
$CELWEIGHT
370
     0
  9
$ENDCAPS
280
     0
  9
$JOINSTYLE
280
     0
  9
$LWDISPLAY
290
     0
  9
$INSUNITS
 70
     0
  9
$HYPERLINKBASE
  1

  9
$STYLESHEET
  1

  9
$XEDIT
290
     1
  9
$CEPSNTYPE
380
     0
  9
$PSTYLEMODE
290
     1
  9
$FINGERPRINTGUID
  2

  9
$VERSIONGUID
  2

  9
$EXTNAMES
290
     1
  9
$PSVPSCALE
 40
0.0
  0
ENDSEC
  0
SECTION
  2
CLASSES
  0
CLASS
  1
LWPOLYLINE
  2
AcDbPolyline
  3
AutoCAD 2000
 90
        0
280
     0
281
     1
  0
CLASS
  1
IMAGE
  2
AcDbRasterImage
  3
ISM
 90
      127
280
     0
281
     1
  0
CLASS
  1
OLE2FRAME
  2
AcDbOle2Frame
  3
AutoCAD 2000
 90
        0
280
     0
281
     1
  0
CLASS
  1
HATCH
  2
AcDbHatch
  3
AutoCAD 2000
 90
        0
280
     0
281
     1
  0
CLASS
  1
DICTIONARYVAR
  2
AcDbDictionaryVar
  3
AutoCAD 2000
 90
        0
280
     0
281
     0
  0
CLASS
  1
RASTERVARIABLES
  2
AcDbRasterVariables
  3
ISM
 90
        0
280
     0
281
     0
  0
CLASS
  1
IMAGEDEF
  2
AcDbRasterImageDef
  3
ISM
 90
        0
280
     0
281
     0
  0
CLASS
  1
IMAGEDEF_REACTOR
  2
AcDbRasterImageDefReactor
  3
ISM
 90
        1
280
     0
281
     0
  0
CLASS
  1
IDBUFFER
  2
AcDbIdBuffer
  3
AutoCAD 2000
 90
        0
280
     0
281
     0
  0
CLASS
  1
SPATIAL_FILTER
  2
AcDbSpatialFilter
  3
AutoCAD 2000
 90
        0
280
     0
281
     0
  0
CLASS
  1
XRECORD
  2
AcDbXrecord
  3
AutoCAD 2000
 90
        0
280
     0
281
     0
  0
CLASS
  1
SORTENTSTABLE
  2
AcDbSortentsTable
  3
AutoCAD 2000
 90
        0
280
     0
281
     0
  0
CLASS
  1
LAYER_INDEX
  2
AcDbLayerIndex
  3
AutoCAD 2000
 90
        0
280
     0
281
     0
  0
CLASS
  1
SPATIAL_INDEX
  2
AcDbSpatialIndex
  3
AutoCAD 2000
 90
        0
280
     0
281
     0
  0
CLASS
  1
OBJECT_PTR
  2
CAseDLPNTableRecord
  3
"ASE-LPNTableRecord"
 90
        1
280
     0
281
     0
  0
CLASS
  1
LAYOUT
  2
AcDbLayout
  3
AutoCAD 2000
 90
        0
280
     0
281
     0
  0
CLASS
  1
PLOTSETTINGS
  2
AcDbPlotSettings
  3
AutoCAD 2000
 90
        0
280
     0
281
     0
  0
CLASS
  1
ACDBDICTIONARYWDFLT
  2
AcDbDictionaryWithDefault
  3
AutoCAD 2000
 90
        0
280
     0
281
     0
  0
CLASS
  1
ACDBPLACEHOLDER
  2
AcDbPlaceHolder
  3
AutoCAD 2000
 90
        0
280
     0
281
     0
  0
CLASS
  1
VBA_PROJECT
  2
AcDbVbaProject
  3
acadvba
 90
        0
280
     0
281
     0
  0
CLASS
  1
WIPEOUT
  2
AcDbWipeout
  3
WipeOut|AutoCAD Express Tool|expresstools@autodesk.com
 90
      127
280
     0
281
     1
  0
CLASS
  1
WIPEOUTVARIABLES
  2
AcDbWipeoutVariables
  3
WipeOut|AutoCAD Express Tool|expresstools@autodesk.com
 90
        0
280
     0
281
     0
  0
CLASS
  1
RTEXT
  2
RText
  3
RText|AutoCAD Express Tool|expresstools@autodesk.com
 90
        0
280
     0
281
     1
  0
CLASS
  1
ARCALIGNEDTEXT
  2
AcDbArcAlignedText
  3
ATEXT|AutoCAD Express Tool|expresstools@autodesk.com
 90
        0
280
     0
281
     1
  0
ENDSEC
  0
SECTION
  2
TABLES
  0
TABLE
  2
VPORT
  5
7
100
AcDbSymbolTable
 70
    16
  0
VPORT
  5
F4
100
AcDbSymbolTableRecord
100
AcDbViewportTableRecord
  2
*ACTIVE
 70
     0
 10
0.0
 20
0.0
 11
1.0
 21
1.0
 12
0.0
 22
0.0
 13
0.0
 23
0.0
 14
1.0
 24
1.0
 15
0.0
 25
0.0
 16
0.718873
 26
-0.585049
 36
0.375419
 17
0.0
 27
0.0
 37
0.0
 40
57.682257
 41
0.688564
 42
50.0
 43
28.560739
 44
-28.560739
 50
0.0
 51
0.0
 71
    16
 72
   100
 73
     1
 74
     1
 75
     0
 76
     0
 77
     0
 78
     0
281
     0
 65
     0
110
0.0
120
0.0
130
0.0
111
1.0
121
0.0
131
0.0
112
0.0
122
1.0
132
0.0
345
0
346
0
 79
     0
146
0.0
  0
VPORT
  5
F5
100
AcDbSymbolTableRecord
100
AcDbViewportTableRecord
  2
L1
 70
     0
 10
0.0
 20
0.0
 11
1.0
 21
1.0
 12
0.0
 22
0.0
 13
0.0
 23
0.0
 14
1.0
 24
1.0
 15
0.0
 25
0.0
 16
0.718873
 26
-0.585049
 36
0.375419
 17
0.0
 27
0.0
 37
0.0
 40
57.682257
 41
0.688564
 42
50.0
 43
28.560739
 44
-28.560739
 50
0.0
 51
0.0
 71
    16
 72
   100
 73
     1
 74
     1
 75
     0
 76
     0
 77
     0
 78
     0
281
     0
 65
     0
110
0.0
120
0.0
130
0.0
111
1.0
121
0.0
131
0.0
112
0.0
122
1.0
132
0.0
345
0
346
0
 79
     0
146
0.0
  0
VPORT
  5
F6
100
AcDbSymbolTableRecord
100
AcDbViewportTableRecord
  2
L2
 70
     0
 10
0.0
 20
0.0
 11
0.5
 21
1.0
 12
0.0
 22
0.0
 13
0.0
 23
0.0
 14
1.0
 24
1.0
 15
0.0
 25
0.0
 16
0.0
 26
-1.0
 36
0.0
 17
0.0
 27
0.0
 37
0.0
 40
55.728271
 41
0.688564
 42
50.0
 43
28.631903
 44
-28.631903
 50
0.0
 51
0.0
 71
    16
 72
   100
 73
     1
 74
     1
 75
     0
 76
     0
 77
     0
 78
     0
281
     0
 65
     0
110
0.0
120
0.0
130
0.0
111
1.0
121
0.0
131
0.0
112
0.0
122
1.0
132
0.0
345
0
346
0
 79
     0
146
0.0
  0
VPORT
  5
F7
100
AcDbSymbolTableRecord
100
AcDbViewportTableRecord
  2
L2
 70
     0
 10
0.5
 20
0.0
 11
1.0
 21
1.0
 12
0.0
 22
0.0
 13
0.0
 23
0.0
 14
1.0
 24
1.0
 15
0.0
 25
0.0
 16
1.0
 26
0.0
 36
0.0
 17
0.0
 27
0.0
 37
0.0
 40
55.728271
 41
0.688564
 42
50.0
 43
28.246346
 44
-28.246346
 50
0.0
 51
0.0
 71
    16
 72
   100
 73
     1
 74
     1
 75
     0
 76
     0
 77
     0
 78
     0
281
     0
 65
     0
110
0.0
120
0.0
130
0.0
111
1.0
121
0.0
131
0.0
112
0.0
122
1.0
132
0.0
345
0
346
0
 79
     0
146
0.0
  0
VPORT
  5
F8
100
AcDbSymbolTableRecord
100
AcDbViewportTableRecord
  2
L3
 70
     0
 10
0.0
 20
0.5
 11
1.0
 21
1.0
 12
0.0
 22
0.0
 13
0.0
 23
0.0
 14
1.0
 24
1.0
 15
0.0
 25
0.0
 16
0.0
 26
0.0
 36
1.0
 17
0.0
 27
0.0
 37
0.0
 40
9.261965
 41
0.688564
 42
50.0
 43
27.864136
 44
-27.864136
 50
0.0
 51
0.0
 71
    16
 72
   100
 73
     1
 74
     1
 75
     0
 76
     0
 77
     0
 78
     0
281
     0
 65
     0
110
0.0
120
0.0
130
0.0
111
1.0
121
0.0
131
0.0
112
0.0
122
1.0
132
0.0
345
0
346
0
 79
     0
146
0.0
  0
VPORT
  5
F9
100
AcDbSymbolTableRecord
100
AcDbViewportTableRecord
  2
L3
 70
     0
 10
0.0
 20
0.0
 11
1.0
 21
0.5
 12
0.0
 22
0.0
 13
0.0
 23
0.0
 14
1.0
 24
1.0
 15
0.0
 25
0.0
 16
0.0
 26
-1.0
 36
0.0
 17
0.0
 27
0.0
 37
0.0
 40
55.728271
 41
0.688564
 42
50.0
 43
28.631903
 44
-28.631903
 50
0.0
 51
0.0
 71
    16
 72
   100
 73
     1
 74
     1
 75
     0
 76
     0
 77
     0
 78
     0
281
     0
 65
     0
110
0.0
120
0.0
130
0.0
111
1.0
121
0.0
131
0.0
112
0.0
122
1.0
132
0.0
345
0
346
0
 79
     0
146
0.0
  0
VPORT
  5
FA
100
AcDbSymbolTableRecord
100
AcDbViewportTableRecord
  2
L4
 70
     0
 10
0.0
 20
0.5
 11
0.5
 21
1.0
 12
0.0
 22
0.0
 13
0.0
 23
0.0
 14
1.0
 24
1.0
 15
0.0
 25
0.0
 16
0.0
 26
0.0
 36
1.0
 17
0.0
 27
0.0
 37
0.0
 40
9.261965
 41
0.688564
 42
50.0
 43
27.864136
 44
-27.864136
 50
0.0
 51
0.0
 71
    16
 72
   100
 73
     1
 74
     1
 75
     0
 76
     0
 77
     0
 78
     0
281
     0
 65
     0
110
0.0
120
0.0
130
0.0
111
1.0
121
0.0
131
0.0
112
0.0
122
1.0
132
0.0
345
0
346
0
 79
     0
146
0.0
  0
VPORT
  5
FB
100
AcDbSymbolTableRecord
100
AcDbViewportTableRecord
  2
L4
 70
     0
 10
0.0
 20
0.0
 11
0.5
 21
0.5
 12
0.0
 22
0.0
 13
0.0
 23
0.0
 14
1.0
 24
1.0
 15
0.0
 25
0.0
 16
0.0
 26
-1.0
 36
0.0
 17
0.0
 27
0.0
 37
0.0
 40
55.728271
 41
0.688564
 42
50.0
 43
28.631903
 44
-28.631903
 50
0.0
 51
0.0
 71
    16
 72
   100
 73
     1
 74
     1
 75
     0
 76
     0
 77
     0
 78
     0
281
     0
 65
     0
110
0.0
120
0.0
130
0.0
111
1.0
121
0.0
131
0.0
112
0.0
122
1.0
132
0.0
345
0
346
0
 79
     0
146
0.0
  0
VPORT
  5
FC
100
AcDbSymbolTableRecord
100
AcDbViewportTableRecord
  2
L4
 70
     0
 10
0.5
 20
0.0
 11
1.0
 21
0.5
 12
0.0
 22
0.0
 13
0.0
 23
0.0
 14
1.0
 24
1.0
 15
0.0
 25
0.0
 16
1.0
 26
0.0
 36
0.0
 17
0.0
 27
0.0
 37
0.0
 40
55.728271
 41
0.688564
 42
50.0
 43
28.246346
 44
-28.246346
 50
0.0
 51
0.0
 71
    16
 72
   100
 73
     1
 74
     1
 75
     0
 76
     0
 77
     0
 78
     0
281
     0
 65
     0
110
0.0
120
0.0
130
0.0
111
1.0
121
0.0
131
0.0
112
0.0
122
1.0
132
0.0
345
0
346
0
 79
     0
146
0.0
  0
VPORT
  5
FD
100
AcDbSymbolTableRecord
100
AcDbViewportTableRecord
  2
L4
 70
     0
 10
0.5
 20
0.5
 11
1.0
 21
1.0
 12
0.0
 22
0.0
 13
0.0
 23
0.0
 14
1.0
 24
1.0
 15
0.0
 25
0.0
 16
0.57735
 26
-0.57735
 36
0.57735
 17
0.0
 27
0.0
 37
0.0
 40
54.660595
 41
0.688564
 42
50.0
 43
28.457966
 44
-28.457966
 50
0.0
 51
0.0
 71
    16
 72
   100
 73
     1
 74
     1
 75
     0
 76
     0
 77
     0
 78
     0
281
     0
 65
     0
110
0.0
120
0.0
130
0.0
111
1.0
121
0.0
131
0.0
112
0.0
122
1.0
132
0.0
345
0
346
0
 79
     0
146
0.0
  0
VPORT
  5
FE
100
AcDbSymbolTableRecord
100
AcDbViewportTableRecord
  2
L6
 70
     0
 10
0.0
 20
0.5
 11
0.333333
 21
1.0
 12
0.0
 22
0.0
 13
0.0
 23
0.0
 14
1.0
 24
1.0
 15
0.0
 25
0.0
 16
0.718873
 26
-0.585049
 36
0.375419
 17
0.0
 27
0.0
 37
0.0
 40
57.682257
 41
0.688564
 42
50.0
 43
28.560739
 44
-28.560739
 50
0.0
 51
0.0
 71
    16
 72
   100
 73
     1
 74
     1
 75
     0
 76
     0
 77
     0
 78
     0
281
     0
 65
     0
110
0.0
120
0.0
130
0.0
111
1.0
121
0.0
131
0.0
112
0.0
122
1.0
132
0.0
345
0
346
0
 79
     0
146
0.0
  0
VPORT
  5
FF
100
AcDbSymbolTableRecord
100
AcDbViewportTableRecord
  2
L6
 70
     0
 10
0.0
 20
0.0
 11
0.333333
 21
0.5
 12
0.0
 22
0.0
 13
0.0
 23
0.0
 14
1.0
 24
1.0
 15
0.0
 25
0.0
 16
-1.0
 26
0.0
 36
0.0
 17
0.0
 27
0.0
 37
0.0
 40
55.728271
 41
0.688564
 42
50.0
 43
28.246346
 44
-28.246346
 50
0.0
 51
0.0
 71
    16
 72
   100
 73
     1
 74
     1
 75
     0
 76
     0
 77
     0
 78
     0
281
     0
 65
     0
110
0.0
120
0.0
130
0.0
111
1.0
121
0.0
131
0.0
112
0.0
122
1.0
132
0.0
345
0
346
0
 79
     0
146
0.0
  0
VPORT
  5
100
100
AcDbSymbolTableRecord
100
AcDbViewportTableRecord
  2
L6
 70
     0
 10
0.333333
 20
0.5
 11
0.666667
 21
1.0
 12
0.0
 22
0.0
 13
0.0
 23
0.0
 14
1.0
 24
1.0
 15
0.0
 25
0.0
 16
0.0
 26
0.0
 36
1.0
 17
0.0
 27
0.0
 37
0.0
 40
9.261965
 41
0.688564
 42
50.0
 43
27.864136
 44
-27.864136
 50
0.0
 51
0.0
 71
    16
 72
   100
 73
     1
 74
     1
 75
     0
 76
     0
 77
     0
 78
     0
281
     0
 65
     0
110
0.0
120
0.0
130
0.0
111
1.0
121
0.0
131
0.0
112
0.0
122
1.0
132
0.0
345
0
346
0
 79
     0
146
0.0
  0
VPORT
  5
101
100
AcDbSymbolTableRecord
100
AcDbViewportTableRecord
  2
L6
 70
     0
 10
0.333333
 20
0.0
 11
0.666667
 21
0.5
 12
0.0
 22
0.0
 13
0.0
 23
0.0
 14
1.0
 24
1.0
 15
0.0
 25
0.0
 16
0.0
 26
-1.0
 36
0.0
 17
0.0
 27
0.0
 37
0.0
 40
55.728271
 41
0.688564
 42
50.0
 43
28.631903
 44
-28.631903
 50
0.0
 51
0.0
 71
    16
 72
   100
 73
     1
 74
     1
 75
     0
 76
     0
 77
     0
 78
     0
281
     0
 65
     0
110
0.0
120
0.0
130
0.0
111
1.0
121
0.0
131
0.0
112
0.0
122
1.0
132
0.0
345
0
346
0
 79
     0
146
0.0
  0
VPORT
  5
102
100
AcDbSymbolTableRecord
100
AcDbViewportTableRecord
  2
L6
 70
     0
 10
0.666667
 20
0.5
 11
1.0
 21
1.0
 12
0.0
 22
0.0
 13
0.0
 23
0.0
 14
1.0
 24
1.0
 15
0.0
 25
0.0
 16
0.57735
 26
-0.57735
 36
0.57735
 17
0.0
 27
0.0
 37
0.0
 40
54.660595
 41
0.688564
 42
50.0
 43
28.457966
 44
-28.457966
 50
0.0
 51
0.0
 71
    16
 72
   100
 73
     1
 74
     1
 75
     0
 76
     0
 77
     0
 78
     0
281
     0
 65
     0
110
0.0
120
0.0
130
0.0
111
1.0
121
0.0
131
0.0
112
0.0
122
1.0
132
0.0
345
0
346
0
 79
     0
146
0.0
  0
VPORT
  5
103
100
AcDbSymbolTableRecord
100
AcDbViewportTableRecord
  2
L6
 70
     0
 10
0.666667
 20
0.0
 11
1.0
 21
0.5
 12
0.0
 22
0.0
 13
0.0
 23
0.0
 14
1.0
 24
1.0
 15
0.0
 25
0.0
 16
1.0
 26
0.0
 36
0.0
 17
0.0
 27
0.0
 37
0.0
 40
55.728271
 41
0.688564
 42
50.0
 43
28.246346
 44
-28.246346
 50
0.0
 51
0.0
 71
    16
 72
   100
 73
     1
 74
     1
 75
     0
 76
     0
 77
     0
 78
     0
281
     0
 65
     0
110
0.0
120
0.0
130
0.0
111
1.0
121
0.0
131
0.0
112
0.0
122
1.0
132
0.0
345
0
346
0
 79
     0
146
0.0
  0
ENDTAB
  0
TABLE
  2
LTYPE
  5
4
100
AcDbSymbolTable
 70
     9
  0
LTYPE
  5
11
100
AcDbSymbolTableRecord
100
AcDbLinetypeTableRecord
  2
ByBlock
 70
    64
  3

 72
    65
 73
     0
 40
0.0
  0
LTYPE
  5
12
100
AcDbSymbolTableRecord
100
AcDbLinetypeTableRecord
  2
ByLayer
 70
    64
  3

 72
    65
 73
     0
 40
0.0
  0
LTYPE
  5
13
100
AcDbSymbolTableRecord
100
AcDbLinetypeTableRecord
  2
Continuous
 70
    64
  3
Solid line
 72
    65
 73
     0
 40
0.0
  0
LTYPE
  5
24
100
AcDbSymbolTableRecord
100
AcDbLinetypeTableRecord
  2
DASHED
 70
    64
  3
__ __ __ __ __ __ __ __ __
 72
    65
 73
     2
 40
0.75
 49
0.5
 74
     0
 49
-0.25
 74
     0
  0
LTYPE
  5
25
100
AcDbSymbolTableRecord
100
AcDbLinetypeTableRecord
  2
HIDDEN
 70
    64
  3
_ _ _ _ _ _ _ _ _ _ _ _ _ _ _
 72
    65
 73
     2
 40
0.5
 49
0.25
 74
     0
 49
-0.25
 74
     0
  0
LTYPE
  5
26
100
AcDbSymbolTableRecord
100
AcDbLinetypeTableRecord
  2
PHANTOM
 70
    64
  3
____ _ _ ____ _ _ _____ _ _ ____
 72
    65
 73
     6
 40
2.5
 49
1.25
 74
     0
 49
-0.25
 74
     0
 49
0.25
 74
     0
 49
-0.25
 74
     0
 49
0.25
 74
     0
 49
-0.25
 74
     0
  0
LTYPE
  5
27
100
AcDbSymbolTableRecord
100
AcDbLinetypeTableRecord
  2
CENTER
 70
    64
  3
____ _ ____ _ ____ _ ____
 72
    65
 73
     4
 40
2.0
 49
1.25
 74
     0
 49
-0.25
 74
     0
 49
0.25
 74
     0
 49
-0.25
 74
     0
  0
LTYPE
  5
28
100
AcDbSymbolTableRecord
100
AcDbLinetypeTableRecord
  2
DOT
 70
    64
  3
.........................
 72
    65
 73
     2
 40
0.25
 49
0.0
 74
     0
 49
-0.25
 74
     0
  0
LTYPE
  5
29
100
AcDbSymbolTableRecord
100
AcDbLinetypeTableRecord
  2
DASHDOT
 70
    64
  3
_._._._._._._._._._._._._._._._.
 72
    65
 73
     4
 40
1.0
 49
0.5
 74
     0
 49
-0.25
 74
     0
 49
0.0
 74
     0
 49
-0.25
 74
     0
  0
ENDTAB
  0
TABLE
  2
LAYER
  5
2
100
AcDbSymbolTable
 70
     3
  0
LAYER
  5
14
100
AcDbSymbolTableRecord
100
AcDbLayerTableRecord
  2
0
 70
     0
 62
     7
  6
Continuous
290
     1
370
    -3
390
1D
  0
LAYER
  5
2B
100
AcDbSymbolTableRecord
100
AcDbLayerTableRecord
  2
1
 70
     0
 62
     7
  6
Continuous
290
     1
370
    -3
390
1D
  0
LAYER
  5
6F
100
AcDbSymbolTableRecord
100
AcDbLayerTableRecord
  2
FRONT
 70
     0
 62
     7
  6
Continuous
290
     1
370
    -3
390
1D
  0
ENDTAB
  0
TABLE
  2
STYLE
  5
3
100
AcDbSymbolTable
 70
     2
  0
STYLE
  5
17
100
AcDbSymbolTableRecord
100
AcDbTextStyleTableRecord
  2
Standard
 70
     0
 40
0.0
 41
1.0
 50
0.0
 71
     0
 42
0.0
  3
txt
  4

  0
STYLE
  5
6E
100
AcDbSymbolTableRecord
100
AcDbTextStyleTableRecord
  2
blockfont
 70
     0
 40
0.0
 41
1.0
 50
0.0
 71
     0
 42
0.2
  3
simplex.shx
  4
bigfont
  0
ENDTAB
  0
TABLE
  2
VIEW
  5
5
100
AcDbSymbolTable
 70
     8
  0
VIEW
  5
EC
100
AcDbSymbolTableRecord
100
AcDbViewTableRecord
  2
TOP
 70
     0
 40
9.261965
 10
0.0
 20
0.0
 41
13.17206
 11
0.0
 21
0.0
 31
1.0
 12
0.0
 22
0.0
 32
0.0
 42
50.0
 43
27.864136
 44
-27.864136
 50
0.0
 71
    16
281
     0
 72
     0
110
0.0
120
0.0
130
0.0
111
1.0
121
0.0
131
0.0
112
0.0
122
1.0
132
0.0
  0
VIEW
  5
ED
100
AcDbSymbolTableRecord
100
AcDbViewTableRecord
  2
FRONT
 70
     0
 40
55.728271
 10
0.0
 20
0.0
 41
13.17206
 11
0.0
 21
-1.0
 31
0.0
 12
0.0
 22
0.0
 32
0.0
 42
50.0
 43
28.631903
 44
-28.631903
 50
0.0
 71
    16
281
     0
 72
     0
110
0.0
120
0.0
130
0.0
111
1.0
121
0.0
131
0.0
112
0.0
122
1.0
132
0.0
  0
VIEW
  5
EE
100
AcDbSymbolTableRecord
100
AcDbViewTableRecord
  2
RIGHT
 70
     0
 40
55.728271
 10
0.0
 20
0.0
 41
9.261965
 11
1.0
 21
0.0
 31
0.0
 12
0.0
 22
0.0
 32
0.0
 42
50.0
 43
28.246346
 44
-28.246346
 50
0.0
 71
    16
281
     0
 72
     0
110
0.0
120
0.0
130
0.0
111
1.0
121
0.0
131
0.0
112
0.0
122
1.0
132
0.0
  0
VIEW
  5
EF
100
AcDbSymbolTableRecord
100
AcDbViewTableRecord
  2
BACK
 70
     0
 40
55.728271
 10
0.0
 20
0.0
 41
13.17206
 11
0.0
 21
1.0
 31
0.0
 12
0.0
 22
0.0
 32
0.0
 42
50.0
 43
28.631903
 44
-28.631903
 50
0.0
 71
    16
281
     0
 72
     0
110
0.0
120
0.0
130
0.0
111
1.0
121
0.0
131
0.0
112
0.0
122
1.0
132
0.0
  0
VIEW
  5
F0
100
AcDbSymbolTableRecord
100
AcDbViewTableRecord
  2
BOTTOM
 70
     0
 40
9.261965
 10
0.0
 20
0.0
 41
13.17206
 11
0.0
 21
0.0
 31
-1.0
 12
0.0
 22
0.0
 32
0.0
 42
50.0
 43
27.864136
 44
-27.864136
 50
180.0
 71
    16
281
     0
 72
     0
110
0.0
120
0.0
130
0.0
111
1.0
121
0.0
131
0.0
112
0.0
122
1.0
132
0.0
  0
VIEW
  5
F1
100
AcDbSymbolTableRecord
100
AcDbViewTableRecord
  2
LEFT
 70
     0
 40
55.728271
 10
0.0
 20
0.0
 41
9.261965
 11
-1.0
 21
0.0
 31
0.0
 12
0.0
 22
0.0
 32
0.0
 42
50.0
 43
28.246346
 44
-28.246346
 50
0.0
 71
    16
281
     0
 72
     0
110
0.0
120
0.0
130
0.0
111
1.0
121
0.0
131
0.0
112
0.0
122
1.0
132
0.0
  0
VIEW
  5
F2
100
AcDbSymbolTableRecord
100
AcDbViewTableRecord
  2
TFR-ISO
 70
     0
 40
54.660595
 10
0.0
 20
0.0
 41
15.863251
 11
0.57735
 21
-0.57735
 31
0.57735
 12
0.0
 22
0.0
 32
0.0
 42
50.0
 43
28.457966
 44
-28.457966
 50
0.0
 71
    16
281
     0
 72
     0
110
0.0
120
0.0
130
0.0
111
1.0
121
0.0
131
0.0
112
0.0
122
1.0
132
0.0
  0
VIEW
  5
F3
100
AcDbSymbolTableRecord
100
AcDbViewTableRecord
  2
TFR-TRI
 70
     0
 40
57.682257
 10
0.0
 20
0.0
 41
15.498078
 11
0.718873
 21
-0.585049
 31
0.375419
 12
0.0
 22
0.0
 32
0.0
 42
50.0
 43
28.560739
 44
-28.560739
 50
0.0
 71
    16
281
     0
 72
     0
110
0.0
120
0.0
130
0.0
111
1.0
121
0.0
131
0.0
112
0.0
122
1.0
132
0.0
  0
ENDTAB
  0
TABLE
  2
UCS
  5
6
100
AcDbSymbolTable
 70
     0
  0
ENDTAB
  0
TABLE
  2
APPID
  5
8
100
AcDbSymbolTable
 70
     1
  0
APPID
  5
16
100
AcDbSymbolTableRecord
100
AcDbRegAppTableRecord
  2
ACAD
 70
     0
  0
ENDTAB
  0
TABLE
  2
DIMSTYLE
  5
9
100
AcDbSymbolTable
 70
     1
100
AcDbDimStyleTable
 71
     0
  0
DIMSTYLE
105
18
100
AcDbSymbolTableRecord
100
AcDbDimStyleTableRecord
  2
Standard
 70
     0
  3

  4

 40
1.0
 41
0.18
 42
0.0625
 43
0.38
 44
0.18
 45
0.0
 46
0.0
 47
0.0
 48
0.0
 71
     0
 72
     0
 73
     1
 74
     1
 75
     0
 76
     0
 77
     0
 78
     0
 79
     0
140
0.18
141
0.09
142
0.0
143
25.4
144
1.0
145
0.0
146
1.0
147
0.09
148
0.0
170
     0
171
     2
172
     0
173
     0
174
     0
175
     0
176
     0
177
     0
178
     0
179
     0
271
     4
272
     4
273
     2
274
     2
275
     0
276
     0
277
     2
278
    46
279
     0
280
     0
281
     0
282
     0
283
     1
284
     0
285
     0
286
     0
288
     0
289
     3
340
17
341
0
342
0
343
0
344
0
371
    -2
372
    -2
  0
ENDTAB
  0
TABLE
  2
BLOCK_RECORD
  5
1
100
AcDbSymbolTable
 70
     6
  0
BLOCK_RECORD
  5
A
100
AcDbSymbolTableRecord
100
AcDbBlockTableRecord
  2
*MODEL_SPACE
340
20
  0
BLOCK_RECORD
  5
B
100
AcDbSymbolTableRecord
100
AcDbBlockTableRecord
  2
*PAPER_SPACE
340
21
  0
BLOCK_RECORD
  5
94
100
AcDbSymbolTableRecord
100
AcDbBlockTableRecord
  2
_D0
340
0
  0
BLOCK_RECORD
  5
A3
100
AcDbSymbolTableRecord
100
AcDbBlockTableRecord
  2
_D1
340
0
  0
BLOCK_RECORD
  5
B2
100
AcDbSymbolTableRecord
100
AcDbBlockTableRecord
  2
_D2
340
0
  0
BLOCK_RECORD
  5
C0
100
AcDbSymbolTableRecord
100
AcDbBlockTableRecord
  2
_D3
340
0
  0
BLOCK_RECORD
  5
CE
100
AcDbSymbolTableRecord
100
AcDbBlockTableRecord
  2
_D4
340
0
  0
BLOCK_RECORD
  5
DD
100
AcDbSymbolTableRecord
100
AcDbBlockTableRecord
  2
_D5
340
0
  0
ENDTAB
  0
ENDSEC
  0
SECTION
  2
BLOCKS
  0
BLOCK
  5
D
100
AcDbEntity
  8
0
390
0
100
AcDbBlockBegin
  2
*MODEL_SPACE
 70
     0
 10
0.0
 20
0.0
 30
0.0
  3
*MODEL_SPACE
  1

  0
ENDBLK
  5
E
100
AcDbEntity
  8
0
390
0
100
AcDbBlockEnd
  0
BLOCK
  5
F
100
AcDbEntity
 67
     1
  8
0
390
0
100
AcDbBlockBegin
  2
*PAPER_SPACE
 70
     0
 10
0.0
 20
0.0
 30
0.0
  3
*PAPER_SPACE
  1

  0
ENDBLK
  5
10
100
AcDbEntity
 67
     1
  8
0
390
0
100
AcDbBlockEnd
  0
BLOCK
  5
95
100
AcDbEntity
  8
0
390
0
100
AcDbBlockBegin
  2
_D0
 70
     0
 10
0.0
 20
0.0
 30
0.0
  3
_D0
  1

  0
MTEXT
  5
96
100
AcDbEntity
  8
FRONT
390
0
  6
Continuous
 62
    51
100
AcDbMText
 10
44.334171
 20
0.0
 30
64.35024
 40
2.0
 41
0.0
 71
     7
 72
     5
  1
\W01.000;111.0
  7
blockfont
210
0.0
220
-1.0
230
0.0
 73
     2
 44
0.903614
  0
LINE
  5
97
100
AcDbEntity
  8
1
390
0
 62
    51
100
AcDbLine
 10
-4.792139
 20
19.702572
 30
0.0
 11
-4.792139
 21
66.121074
 31
0.0
  0
LINE
  5
98
100
AcDbEntity
  8
1
390
0
 62
    51
100
AcDbLine
 10
106.207861
 20
18.0625
 30
0.0
 11
106.207861
 21
66.121074
 31
0.0
  0
LINE
  5
99
100
AcDbEntity
  8
1
390
0
 62
    51
100
AcDbLine
 10
-4.792139
 20
65.996074
 30
0.0
 11
44.246671
 21
65.996074
 31
0.0
  0
LINE
  5
9A
100
AcDbEntity
  8
1
390
0
 62
    51
100
AcDbLine
 10
106.207861
 20
65.996074
 30
0.0
 11
55.067504
 21
65.996074
 31
0.0
  0
LINE
  5
9B
100
AcDbEntity
  8
1
390
0
 62
    51
100
AcDbLine
 10
-4.792139
 20
65.996074
 30
0.0
 11
-2.792141
 21
66.531972
 31
0.0
  0
LINE
  5
9C
100
AcDbEntity
  8
1
390
0
 62
    51
100
AcDbLine
 10
-4.792139
 20
65.996074
 30
0.0
 11
-2.792137
 21
65.460175
 31
0.0
  0
LINE
  5
9D
100
AcDbEntity
  8
1
390
0
 62
    51
100
AcDbLine
 10
-2.792141
 20
66.531972
 30
0.0
 11
-2.792137
 21
65.460175
 31
0.0
  0
LINE
  5
9E
100
AcDbEntity
  8
1
390
0
 62
    51
100
AcDbLine
 10
106.207861
 20
65.996074
 30
0.0
 11
104.207863
 21
65.460175
 31
0.0
  0
LINE
  5
9F
100
AcDbEntity
  8
1
390
0
 62
    51
100
AcDbLine
 10
106.207861
 20
65.996074
 30
0.0
 11
104.207859
 21
66.531972
 31
0.0
  0
LINE
  5
A0
100
AcDbEntity
  8
1
390
0
 62
    51
100
AcDbLine
 10
104.207863
 20
65.460175
 30
0.0
 11
104.207859
 21
66.531972
 31
0.0
  0
ENDBLK
  5
A1
100
AcDbEntity
  8
0
390
0
100
AcDbBlockEnd
  0
BLOCK
  5
A4
100
AcDbEntity
  8
0
390
0
100
AcDbBlockBegin
  2
_D1
 70
     0
 10
0.0
 20
0.0
 30
0.0
  3
_D1
  1

  0
MTEXT
  5
A5
100
AcDbEntity
  8
FRONT
390
0
  6
Continuous
 62
    51
100
AcDbMText
 10
10.09438
 20
0.0
 30
60.112646
 40
2.0
 41
0.0
 71
     7
 72
     5
  1
\W01.000;12.0
  7
blockfont
210
0.0
220
-1.0
230
0.0
 73
     2
 44
0.903614
  0
LINE
  5
A6
100
AcDbEntity
  8
1
390
0
 62
    51
100
AcDbLine
 10
8.396762
 20
52.3125
 30
0.0
 11
8.396762
 21
61.883479
 31
0.0
  0
LINE
  5
A7
100
AcDbEntity
  8
1
390
0
 62
    51
100
AcDbLine
 10
20.396762
 20
52.3125
 30
0.0
 11
20.396762
 21
61.883479
 31
0.0
  0
LINE
  5
A8
100
AcDbEntity
  8
1
390
0
 62
    51
100
AcDbLine
 10
8.396762
 20
61.758479
 30
0.0
 11
10.00688
 21
61.758479
 31
0.0
  0
LINE
  5
A9
100
AcDbEntity
  8
1
390
0
 62
    51
100
AcDbLine
 10
20.396762
 20
61.758479
 30
0.0
 11
18.648547
 21
61.758479
 31
0.0
  0
LINE
  5
AA
100
AcDbEntity
  8
1
390
0
 62
    51
100
AcDbLine
 10
8.396762
 20
61.758479
 30
0.0
 11
10.39676
 21
62.294377
 31
0.0
  0
LINE
  5
AB
100
AcDbEntity
  8
1
390
0
 62
    51
100
AcDbLine
 10
8.396762
 20
61.758479
 30
0.0
 11
10.396764
 21
61.222581
 31
0.0
  0
LINE
  5
AC
100
AcDbEntity
  8
1
390
0
 62
    51
100
AcDbLine
 10
10.39676
 20
62.294377
 30
0.0
 11
10.396764
 21
61.222581
 31
0.0
  0
LINE
  5
AD
100
AcDbEntity
  8
1
390
0
 62
    51
100
AcDbLine
 10
20.396762
 20
61.758479
 30
0.0
 11
18.396764
 21
61.222581
 31
0.0
  0
LINE
  5
AE
100
AcDbEntity
  8
1
390
0
 62
    51
100
AcDbLine
 10
20.396762
 20
61.758479
 30
0.0
 11
18.39676
 21
62.294377
 31
0.0
  0
LINE
  5
AF
100
AcDbEntity
  8
1
390
0
 62
    51
100
AcDbLine
 10
18.396764
 20
61.222581
 30
0.0
 11
18.39676
 21
62.294377
 31
0.0
  0
ENDBLK
  5
B0
100
AcDbEntity
  8
0
390
0
100
AcDbBlockEnd
  0
BLOCK
  5
B3
100
AcDbEntity
  8
0
390
0
100
AcDbBlockBegin
  2
_D2
 70
     0
 10
0.0
 20
0.0
 30
0.0
  3
_D2
  1

  0
MTEXT
  5
B4
100
AcDbEntity
  8
FRONT
390
0
  6
Continuous
 62
    51
100
AcDbMText
 10
-17.667964
 20
0.0
 30
-2.175093
 40
2.0
 41
0.0
 71
     7
 72
     5
  1
\W01.000;36.0
  7
blockfont
210
0.0
220
-1.0
230
0.0
 73
     2
 44
0.903614
  0
LINE
  5
B5
100
AcDbEntity
  8
1
390
0
 62
    51
100
AcDbLine
 10
-2.665738
 20
19.5
 30
0.0
 11
-13.55963
 21
19.5
 31
0.0
  0
LINE
  5
B6
100
AcDbEntity
  8
1
390
0
 62
    51
100
AcDbLine
 10
-13.43463
 20
-16.5
 30
0.0
 11
-13.43463
 21
-1.591759
 31
0.0
  0
LINE
  5
B7
100
AcDbEntity
  8
1
390
0
 62
    51
100
AcDbLine
 10
-13.43463
 20
19.5
 30
0.0
 11
-13.43463
 21
0.533241
 31
0.0
  0
LINE
  5
B8
100
AcDbEntity
  8
1
390
0
 62
    51
100
AcDbLine
 10
-13.43463
 20
-16.5
 30
0.0
 11
-13.970529
 21
-14.500002
 31
0.0
  0
LINE
  5
B9
100
AcDbEntity
  8
1
390
0
 62
    51
100
AcDbLine
 10
-13.43463
 20
-16.5
 30
0.0
 11
-12.898732
 21
-14.499998
 31
0.0
  0
LINE
  5
BA
100
AcDbEntity
  8
1
390
0
 62
    51
100
AcDbLine
 10
-13.970529
 20
-14.500002
 30
0.0
 11
-12.898732
 21
-14.499998
 31
0.0
  0
LINE
  5
BB
100
AcDbEntity
  8
1
390
0
 62
    51
100
AcDbLine
 10
-13.43463
 20
19.5
 30
0.0
 11
-12.898732
 21
17.500002
 31
0.0
  0
LINE
  5
BC
100
AcDbEntity
  8
1
390
0
 62
    51
100
AcDbLine
 10
-13.43463
 20
19.5
 30
0.0
 11
-13.970529
 21
17.499998
 31
0.0
  0
LINE
  5
BD
100
AcDbEntity
  8
1
390
0
 62
    51
100
AcDbLine
 10
-12.898732
 20
17.500002
 30
0.0
 11
-13.970529
 21
17.499998
 31
0.0
  0
ENDBLK
  5
BE
100
AcDbEntity
  8
0
390
0
100
AcDbBlockEnd
  0
BLOCK
  5
C1
100
AcDbEntity
  8
0
390
0
100
AcDbBlockBegin
  2
_D3
 70
     0
 10
0.0
 20
0.0
 30
0.0
  3
_D3
  1

  0
MTEXT
  5
C2
100
AcDbEntity
  8
FRONT
390
0
  6
Continuous
 62
    51
100
AcDbMText
 10
56.790932
 20
0.0
 30
8.690266
 40
2.0
 41
0.0
 71
     7
 72
     5
  1
\W01.000;80.0
  7
blockfont
210
0.0
220
-1.0
230
0.0
 73
     2
 44
0.903614
  0
LINE
  5
C3
100
AcDbEntity
  8
1
390
0
 62
    51
100
AcDbLine
 10
101.405338
 20
7.8125
 30
0.0
 11
101.405338
 21
10.4611
 31
0.0
  0
LINE
  5
C4
100
AcDbEntity
  8
1
390
0
 62
    51
100
AcDbLine
 10
21.396762
 20
10.3361
 30
0.0
 11
56.703432
 21
10.3361
 31
0.0
  0
LINE
  5
C5
100
AcDbEntity
  8
1
390
0
 62
    51
100
AcDbLine
 10
101.405338
 20
10.3361
 30
0.0
 11
65.345099
 21
10.3361
 31
0.0
  0
LINE
  5
C6
100
AcDbEntity
  8
1
390
0
 62
    51
100
AcDbLine
 10
21.396762
 20
10.3361
 30
0.0
 11
23.39676
 21
10.871998
 31
0.0
  0
LINE
  5
C7
100
AcDbEntity
  8
1
390
0
 62
    51
100
AcDbLine
 10
21.396762
 20
10.3361
 30
0.0
 11
23.396764
 21
9.800201
 31
0.0
  0
LINE
  5
C8
100
AcDbEntity
  8
1
390
0
 62
    51
100
AcDbLine
 10
23.39676
 20
10.871998
 30
0.0
 11
23.396764
 21
9.800201
 31
0.0
  0
LINE
  5
C9
100
AcDbEntity
  8
1
390
0
 62
    51
100
AcDbLine
 10
101.405338
 20
10.3361
 30
0.0
 11
99.40534
 21
9.800201
 31
0.0
  0
LINE
  5
CA
100
AcDbEntity
  8
1
390
0
 62
    51
100
AcDbLine
 10
101.405338
 20
10.3361
 30
0.0
 11
99.405336
 21
10.871998
 31
0.0
  0
LINE
  5
CB
100
AcDbEntity
  8
1
390
0
 62
    51
100
AcDbLine
 10
99.40534
 20
9.800201
 30
0.0
 11
99.405336
 21
10.871998
 31
0.0
  0
ENDBLK
  5
CC
100
AcDbEntity
  8
0
390
0
100
AcDbBlockEnd
  0
BLOCK
  5
CF
100
AcDbEntity
  8
0
390
0
100
AcDbBlockBegin
  2
_D4
 70
     0
 10
0.0
 20
0.0
 30
0.0
  3
_D4
  1

  0
MTEXT
  5
D0
100
AcDbEntity
  8
FRONT
390
0
  6
Continuous
 62
    51
100
AcDbMText
 10
5.118656
 20
0.0
 30
-6.154957
 40
2.0
 41
0.0
 71
     7
 72
     5
  1
\W01.000;24.0
  7
blockfont
210
0.0
220
-1.0
230
0.0
 73
     2
 44
0.903614
  0
LINE
  5
D1
100
AcDbEntity
  8
1
390
0
 62
    51
100
AcDbLine
 10
-3.603238
 20
17.9375
 30
0.0
 11
-3.603238
 21
-4.634124
 31
0.0
  0
LINE
  5
D2
100
AcDbEntity
  8
1
390
0
 62
    51
100
AcDbLine
 10
20.396762
 20
3.6875
 30
0.0
 11
20.396762
 21
-4.634124
 31
0.0
  0
LINE
  5
D3
100
AcDbEntity
  8
1
390
0
 62
    51
100
AcDbLine
 10
-3.603238
 20
-4.509124
 30
0.0
 11
5.031156
 21
-4.509124
 31
0.0
  0
LINE
  5
D4
100
AcDbEntity
  8
1
390
0
 62
    51
100
AcDbLine
 10
20.396762
 20
-4.509124
 30
0.0
 11
13.672822
 21
-4.509124
 31
0.0
  0
LINE
  5
D5
100
AcDbEntity
  8
1
390
0
 62
    51
100
AcDbLine
 10
-3.603238
 20
-4.509124
 30
0.0
 11
-1.60324
 21
-3.973226
 31
0.0
  0
LINE
  5
D6
100
AcDbEntity
  8
1
390
0
 62
    51
100
AcDbLine
 10
-3.603238
 20
-4.509124
 30
0.0
 11
-1.603236
 21
-5.045023
 31
0.0
  0
LINE
  5
D7
100
AcDbEntity
  8
1
390
0
 62
    51
100
AcDbLine
 10
-1.60324
 20
-3.973226
 30
0.0
 11
-1.603236
 21
-5.045023
 31
0.0
  0
LINE
  5
D8
100
AcDbEntity
  8
1
390
0
 62
    51
100
AcDbLine
 10
20.396762
 20
-4.509124
 30
0.0
 11
18.396764
 21
-5.045023
 31
0.0
  0
LINE
  5
D9
100
AcDbEntity
  8
1
390
0
 62
    51
100
AcDbLine
 10
20.396762
 20
-4.509124
 30
0.0
 11
18.39676
 21
-3.973226
 31
0.0
  0
LINE
  5
DA
100
AcDbEntity
  8
1
390
0
 62
    51
100
AcDbLine
 10
18.396764
 20
-5.045023
 30
0.0
 11
18.39676
 21
-3.973226
 31
0.0
  0
ENDBLK
  5
DB
100
AcDbEntity
  8
0
390
0
100
AcDbBlockEnd
  0
BLOCK
  5
DE
100
AcDbEntity
  8
0
390
0
100
AcDbBlockBegin
  2
_D5
 70
     0
 10
0.0
 20
0.0
 30
0.0
  3
_D5
  1

  0
MTEXT
  5
DF
100
AcDbEntity
  8
FRONT
390
0
  6
Continuous
 62
    51
100
AcDbMText
 10
-17.846795
 20
0.0
 30
26.259057
 40
2.0
 41
0.0
 71
     7
 72
     5
  1
\W01.000;16.0
  7
blockfont
210
0.0
220
-1.0
230
0.0
 73
     2
 44
0.903614
  0
LINE
  5
E0
100
AcDbEntity
  8
1
390
0
 62
    51
100
AcDbLine
 10
-2.665738
 20
19.5
 30
0.0
 11
-13.738462
 21
19.5
 31
0.0
  0
LINE
  5
E1
100
AcDbEntity
  8
1
390
0
 62
    51
100
AcDbLine
 10
7.584262
 20
35.5
 30
0.0
 11
-13.738462
 21
35.5
 31
0.0
  0
LINE
  5
E2
100
AcDbEntity
  8
1
390
0
 62
    51
100
AcDbLine
 10
-13.613462
 20
19.5
 30
0.0
 11
-13.613462
 21
26.84239
 31
0.0
  0
LINE
  5
E3
100
AcDbEntity
  8
1
390
0
 62
    51
100
AcDbLine
 10
-13.613462
 20
35.5
 30
0.0
 11
-13.613462
 21
28.96739
 31
0.0
  0
LINE
  5
E4
100
AcDbEntity
  8
1
390
0
 62
    51
100
AcDbLine
 10
-13.613462
 20
19.5
 30
0.0
 11
-14.14936
 21
21.499998
 31
0.0
  0
LINE
  5
E5
100
AcDbEntity
  8
1
390
0
 62
    51
100
AcDbLine
 10
-13.613462
 20
19.5
 30
0.0
 11
-13.077563
 21
21.500002
 31
0.0
  0
LINE
  5
E6
100
AcDbEntity
  8
1
390
0
 62
    51
100
AcDbLine
 10
-14.14936
 20
21.499998
 30
0.0
 11
-13.077563
 21
21.500002
 31
0.0
  0
LINE
  5
E7
100
AcDbEntity
  8
1
390
0
 62
    51
100
AcDbLine
 10
-13.613462
 20
35.5
 30
0.0
 11
-13.077563
 21
33.500002
 31
0.0
  0
LINE
  5
E8
100
AcDbEntity
  8
1
390
0
 62
    51
100
AcDbLine
 10
-13.613462
 20
35.5
 30
0.0
 11
-14.14936
 21
33.499998
 31
0.0
  0
LINE
  5
E9
100
AcDbEntity
  8
1
390
0
 62
    51
100
AcDbLine
 10
-13.077563
 20
33.500002
 30
0.0
 11
-14.14936
 21
33.499998
 31
0.0
  0
ENDBLK
  5
EA
100
AcDbEntity
  8
0
390
0
100
AcDbBlockEnd
  0
ENDSEC
  0
SECTION
  2
ENTITIES
  0
POINT
  5
2A
100
AcDbEntity
  8
1
390
0
  6
Continuous
 62
     7
100
AcDbPoint
 10
41.0
 20
0.0
 30
-3.5
  0
LINE
  5
2C
100
AcDbEntity
  8
1
390
0
  6
Continuous
 62
     7
100
AcDbLine
 10
58.207861
 20
0.0
 30
54.0
 11
89.952562
 21
0.0
 31
51.354608
  0
LINE
  5
2D
100
AcDbEntity
  8
1
390
0
  6
Continuous
 62
     7
100
AcDbLine
 10
-30.196727
 20
0.0
 30
64.955339
 11
-30.336799
 21
0.0
 31
63.163201
  0
LINE
  5
2E
100
AcDbEntity
  8
1
390
0
  6
DASHED
 62
    60
100
AcDbLine
 10
0.146762
 20
0.0
 30
3.75
 11
-2.853238
 21
0.0
 31
18.0
  0
LINE
  5
2F
100
AcDbEntity
  8
1
390
0
  6
PHANTOM
 62
    60
 48
3.428571
100
AcDbLine
 10
60.0
 20
0.0
 30
39.0
 11
84.0
 21
0.0
 31
39.0
  0
LINE
  5
30
100
AcDbEntity
  8
1
390
0
  6
DASHED
 62
    51
100
AcDbLine
 10
5.442029
 20
0.0
 30
52.25
 11
-3.0
 21
0.0
 31
19.5
  0
LINE
  5
31
100
AcDbEntity
  8
1
390
0
  6
DASHED
 62
    60
100
AcDbLine
 10
25.646762
 20
0.0
 30
21.75
 11
25.646762
 21
0.0
 31
28.5
  0
LINE
  5
32
100
AcDbEntity
  8
1
390
0
  6
DASHED
 62
    60
100
AcDbLine
 10
20.396762
 20
0.0
 30
3.75
 11
20.396762
 21
0.0
 31
52.25
  0
LINE
  5
33
100
AcDbEntity
  8
1
390
0
  6
DASHED
 62
    60
100
AcDbLine
 10
8.396762
 20
0.0
 30
36.25
 11
20.396762
 21
0.0
 31
36.25
  0
LINE
  5
34
100
AcDbEntity
  8
1
390
0
  6
Continuous
 62
     7
100
AcDbLine
 10
36.0
 20
0.0
 30
39.0
 11
60.0
 21
0.0
 31
39.0
  0
LINE
  5
35
100
AcDbEntity
  8
1
390
0
  6
DASHED
 62
     2
100
AcDbLine
 10
101.405338
 20
0.0
 30
3.75
 11
101.405338
 21
0.0
 31
7.75
  0
LINE
  5
36
100
AcDbEntity
  8
1
390
0
  6
DASHED
 62
    60
100
AcDbLine
 10
21.396762
 20
0.0
 30
29.25
 11
33.396762
 21
0.0
 31
29.25
  0
LINE
  5
37
100
AcDbEntity
  8
1
390
0
  6
DASHED
 62
    51
100
AcDbLine
 10
5.442029
 20
0.0
 30
52.25
 11
58.135071
 21
0.0
 31
52.25
  0
LINE
  5
38
100
AcDbEntity
  8
1
390
0
  6
DASHED
 62
    60
100
AcDbLine
 10
7.646762
 20
0.0
 30
35.5
 11
7.646762
 21
0.0
 31
52.25
  0
LINE
  5
39
100
AcDbEntity
  8
1
390
0
  6
DASHED
 62
    60
100
AcDbLine
 10
21.396762
 20
0.0
 30
22.5
 11
24.896762
 21
0.0
 31
22.5
  0
LINE
  5
3A
100
AcDbEntity
  8
1
390
0
  6
DASHED
 62
    60
100
AcDbLine
 10
-3.603238
 20
0.0
 30
18.0
 11
20.396762
 21
0.0
 31
18.0
  0
LINE
  5
3B
100
AcDbEntity
  8
1
390
0
  6
DASHED
 62
    60
100
AcDbLine
 10
19.896762
 20
0.0
 30
22.5
 11
20.396762
 21
0.0
 31
22.5
  0
LINE
  5
3C
100
AcDbEntity
  8
1
390
0
  6
Continuous
 62
     7
100
AcDbLine
 10
90.0
 20
0.0
 30
4.0
 11
90.0
 21
0.0
 31
44.0
  0
LINE
  5
3D
100
AcDbEntity
  8
1
390
0
  6
Continuous
 62
   111
100
AcDbLine
 10
61.976333
 20
0.0
 30
51.929895
 11
62.121663
 21
0.0
 31
53.67385
  0
LINE
  5
3E
100
AcDbEntity
  8
1
390
0
  6
PHANTOM
 62
    60
 48
3.428571
100
AcDbLine
 10
60.0
 20
0.0
 30
27.0
 11
84.0
 21
0.0
 31
27.0
  0
LINE
  5
3F
100
AcDbEntity
  8
1
390
0
  6
DASHED
 62
    51
100
AcDbLine
 10
-0.576923
 20
0.0
 30
3.75
 11
-3.0
 21
0.0
 31
19.5
  0
LINE
  5
40
100
AcDbEntity
  8
1
390
0
  6
DASHED
 62
    51
100
AcDbLine
 10
-2.232127
 20
0.0
 30
3.0
 11
101.155338
 21
0.0
 31
3.0
  0
LINE
  5
41
100
AcDbEntity
  8
1
390
0
  6
Continuous
 62
     7
100
AcDbLine
 10
4.163201
 20
0.0
 30
54.0
 11
-4.792139
 21
0.0
 31
19.640072
  0
LINE
  5
42
100
AcDbEntity
  8
1
390
0
  6
DASHED
 62
    60
100
AcDbLine
 10
-3.603238
 20
0.0
 30
18.0
 11
-3.603238
 21
0.0
 31
18.5
  0
LINE
  5
43
100
AcDbEntity
  8
1
390
0
  6
DASHED
 62
    60
100
AcDbLine
 10
21.396762
 20
0.0
 30
7.75
 11
21.396762
 21
0.0
 31
52.25
  0
LINE
  5
44
100
AcDbEntity
  8
1
390
0
  6
DASHED
 62
    51
100
AcDbLine
 10
104.464519
 20
0.0
 30
17.847501
 11
102.819626
 21
0.0
 31
36.651653
  0
LINE
  5
45
100
AcDbEntity
  8
1
390
0
  6
DASHED
 62
     2
100
AcDbLine
 10
21.405338
 20
0.0
 30
3.75
 11
21.405338
 21
0.0
 31
7.75
  0
LINE
  5
46
100
AcDbEntity
  8
1
390
0
  6
Continuous
 62
     7
100
AcDbLine
 10
4.163201
 20
0.0
 30
54.0
 11
-30.196727
 21
0.0
 31
64.955339
  0
LINE
  5
47
100
AcDbEntity
  8
1
390
0
  6
DASHED
 62
    60
100
AcDbLine
 10
-2.603238
 20
0.0
 30
19.5
 11
17.896762
 21
0.0
 31
19.5
  0
LINE
  5
48
100
AcDbEntity
  8
1
390
0
  6
DASHED
 62
    60
100
AcDbLine
 10
21.396762
 20
0.0
 30
21.75
 11
25.646762
 21
0.0
 31
21.75
  0
LINE
  5
49
100
AcDbEntity
  8
1
390
0
  6
Continuous
 62
     7
100
AcDbLine
 10
-1.770589
 20
0.0
 30
0.0
 11
102.0
 21
0.0
 31
0.0
  0
LINE
  5
4A
100
AcDbEntity
  8
1
390
0
  6
DASHED
 62
    60
100
AcDbLine
 10
8.396762
 20
0.0
 30
36.25
 11
8.396762
 21
0.0
 31
52.25
  0
LINE
  5
4B
100
AcDbEntity
  8
1
390
0
  6
DASHED
 62
    60
100
AcDbLine
 10
24.896762
 20
0.0
 30
22.5
 11
24.896762
 21
0.0
 31
28.5
  0
LINE
  5
4C
100
AcDbEntity
  8
1
390
0
  6
Continuous
 62
     7
100
AcDbLine
 10
66.0
 20
0.0
 30
4.0
 11
66.0
 21
0.0
 31
44.0
  0
LINE
  5
4D
100
AcDbEntity
  8
1
390
0
  6
Continuous
 62
   111
100
AcDbLine
 10
85.893431
 20
0.0
 30
49.936803
 11
86.038761
 21
0.0
 31
51.680758
  0
LINE
  5
4E
100
AcDbEntity
  8
1
390
0
  6
Continuous
 62
     7
100
AcDbLine
 10
106.207861
 20
0.0
 30
18.0
 11
104.562969
 21
0.0
 31
36.804151
  0
LINE
  5
4F
100
AcDbEntity
  8
1
390
0
  6
DASHED
 62
    51
100
AcDbLine
 10
3.396762
 20
0.0
 30
19.5
 11
3.396762
 21
0.0
 31
42.5
  0
LINE
  5
50
100
AcDbEntity
  8
1
390
0
  6
Continuous
 62
     7
100
AcDbLine
 10
106.207861
 20
0.0
 30
18.0
 11
106.207861
 21
0.0
 31
68.422092
  0
LINE
  5
51
100
AcDbEntity
  8
1
390
0
  6
DASHED
 62
    60
100
AcDbLine
 10
33.396762
 20
0.0
 30
29.25
 11
33.396762
 21
0.0
 31
52.25
  0
LINE
  5
52
100
AcDbEntity
  8
1
390
0
  6
DASHED
 62
    60
100
AcDbLine
 10
18.896762
 20
0.0
 30
20.5
 11
18.896762
 21
0.0
 31
21.5
  0
LINE
  5
53
100
AcDbEntity
  8
1
390
0
  6
Continuous
 62
     7
100
AcDbLine
 10
36.0
 20
0.0
 30
27.0
 11
36.0
 21
0.0
 31
39.0
  0
LINE
  5
54
100
AcDbEntity
  8
1
390
0
  6
Continuous
 62
     7
100
AcDbLine
 10
2.413201
 20
0.0
 30
52.721172
 11
-30.336799
 21
0.0
 31
63.163201
  0
LINE
  5
55
100
AcDbEntity
  8
1
390
0
  6
Continuous
 62
     7
100
AcDbLine
 10
41.0
 20
0.0
 30
-16.5
 11
-18.31105
 21
0.0
 31
-16.5
  0
LINE
  5
56
100
AcDbEntity
  8
1
390
0
  6
PHANTOM
 62
    60
100
AcDbLine
 10
84.0
 20
0.0
 30
27.0
 11
84.0
 21
0.0
 31
39.0
  0
LINE
  5
57
100
AcDbEntity
  8
1
390
0
  6
Continuous
 62
     7
100
AcDbLine
 10
4.163201
 20
0.0
 30
54.0
 11
58.207861
 21
0.0
 31
54.0
  0
LINE
  5
58
100
AcDbEntity
  8
1
390
0
  6
DASHED
 62
    51
100
AcDbLine
 10
104.410215
 20
0.0
 30
18.141046
 11
100.339804
 21
0.0
 31
0.553399
  0
LINE
  5
59
100
AcDbEntity
  8
1
390
0
  6
Continuous
 62
     7
100
AcDbLine
 10
-1.770589
 20
0.0
 30
0.0
 11
-4.792139
 21
0.0
 31
19.640072
  0
LINE
  5
5A
100
AcDbEntity
  8
1
390
0
  6
Continuous
 62
     7
100
AcDbLine
 10
36.0
 20
0.0
 30
27.0
 11
60.0
 21
0.0
 31
27.0
  0
LINE
  5
5B
100
AcDbEntity
  8
1
390
0
  6
DASHED
 62
    60
100
AcDbLine
 10
21.396762
 20
0.0
 30
28.5
 11
34.146762
 21
0.0
 31
28.5
  0
LINE
  5
5C
100
AcDbEntity
  8
1
390
0
  6
Continuous
 62
     7
100
AcDbLine
 10
66.0
 20
0.0
 30
4.0
 11
90.0
 21
0.0
 31
4.0
  0
LINE
  5
5D
100
AcDbEntity
  8
1
390
0
  6
DASHED
 62
     2
100
AcDbLine
 10
21.396762
 20
0.0
 30
7.75
 11
101.405338
 21
0.0
 31
7.75
  0
LINE
  5
5E
100
AcDbEntity
  8
1
390
0
  6
Continuous
 62
     7
100
AcDbLine
 10
106.207861
 20
0.0
 30
18.0
 11
102.0
 21
0.0
 31
0.0
  0
LINE
  5
5F
100
AcDbEntity
  8
1
390
0
  6
Continuous
 62
     7
100
AcDbLine
 10
60.0
 20
0.0
 30
27.0
 11
60.0
 21
0.0
 31
39.0
  0
LINE
  5
60
100
AcDbEntity
  8
1
390
0
  6
DASHED
 62
    60
100
AcDbLine
 10
34.146762
 20
0.0
 30
28.5
 11
34.146762
 21
0.0
 31
52.25
  0
LINE
  5
61
100
AcDbEntity
  8
1
390
0
  6
DASHED
 62
    51
100
AcDbLine
 10
-2.347512
 20
0.0
 30
3.75
 11
101.405338
 21
0.0
 31
3.75
  0
LINE
  5
62
100
AcDbEntity
  8
1
390
0
  6
DASHED
 62
    51
100
AcDbLine
 10
58.135071
 20
0.0
 30
52.25
 11
89.807233
 21
0.0
 31
49.610653
  0
LINE
  5
63
100
AcDbEntity
  8
1
390
0
  6
DASHED
 62
    51
100
AcDbLine
 10
3.396762
 20
0.0
 30
42.5
 11
20.396762
 21
0.0
 31
42.5
  0
LINE
  5
64
100
AcDbEntity
  8
1
390
0
  6
DASHED
 62
    60
100
AcDbLine
 10
7.646762
 20
0.0
 30
35.5
 11
20.396762
 21
0.0
 31
35.5
  0
LINE
  5
65
100
AcDbEntity
  8
1
390
0
  6
Continuous
 62
     7
100
AcDbLine
 10
66.0
 20
0.0
 30
44.0
 11
90.0
 21
0.0
 31
44.0
  0
ARC
  5
66
100
AcDbEntity
  8
1
390
0
  6
DASHED
 62
    60
100
AcDbCircle
 10
-2.603238
 20
18.5
 30
0.0
 40
1.0
210
0.0
220
-1.0
230
0.0
100
AcDbArc
 50
90.0
 51
180.0
  0
ARC
  5
67
100
AcDbEntity
  8
1
390
0
  6
DASHED
 62
    51
100
AcDbCircle
 10
88.623835
 20
35.409876
 30
0.0
 40
14.25
210
0.0
220
-1.0
230
0.0
100
AcDbArc
 50
4.999221
 51
85.236358
  0
ARC
  5
68
100
AcDbEntity
  8
1
390
0
  6
Continuous
 62
     7
100
AcDbCircle
 10
88.623835
 20
35.409876
 30
0.0
 40
16.0
210
0.0
220
-1.0
230
0.0
100
AcDbArc
 50
4.999221
 51
85.236358
  0
ARC
  5
69
100
AcDbEntity
  8
1
390
0
  6
DASHED
 62
    60
100
AcDbCircle
 10
17.896762
 20
20.5
 30
0.0
 40
1.0
210
0.0
220
-1.0
230
0.0
100
AcDbArc
 50
270.0
 51
360.0
  0
CIRCLE
  5
6A
100
AcDbEntity
  8
1
390
0
  6
Continuous
 62
     7
100
AcDbCircle
 10
41.0
 20
-3.5
 30
0.0
 40
13.0
210
0.0
220
-1.0
230
0.0
  0
ARC
  5
6B
100
AcDbEntity
  8
1
390
0
  6
Continuous
 62
   111
100
AcDbCircle
 10
67.200093
 20
-29.884122
 30
0.0
 40
83.712157
210
0.0
220
-1.0
230
0.0
100
AcDbArc
 50
76.994711
 51
93.478006
  0
ARC
  5
6C
100
AcDbEntity
  8
1
390
0
  6
DASHED
 62
    60
100
AcDbCircle
 10
19.896762
 20
21.5
 30
0.0
 40
1.0
210
0.0
220
-1.0
230
0.0
100
AcDbArc
 50
90.0
 51
180.0
  0
MTEXT
  5
6D
100
AcDbEntity
  8
FRONT
390
0
  6
Continuous
 62
    51
100
AcDbMText
 10
58.281892
 20
0.0
 30
20.51036
 40
2.0
 41
0.0
 71
     7
 72
     5
  1
\W01.000;Queen Size Mattress
  7
blockfont
210
0.0
220
-1.0
230
0.0
 73
     2
 44
0.903614
  0
LEADER
  5
70
100
AcDbEntity
  8
FRONT
390
0
  6
Continuous
 62
    51
100
AcDbLeader
  3
Standard
 71
     0
 73
     3
 74
     1
 75
     1
 40
0.0
 76
     3
 10
99.756892
 20
0.0
 30
22.156193
 10
101.506892
 20
0.0
 30
22.156193
 10
99.506892
 20
0.0
 30
22.156193
 77
   256
210
0.0
220
-1.0
230
0.0
1001
ACAD
1000
DSTYLE
1002
{
1070
   271
1070
     3
1070
   272
1070
     3
1070
   177
1070
    51
1070
   176
1070
    51
1070
   178
1070
    95
1070
    47
1040
0.005
1070
    48
1040
-0.005
1070
    41
1040
2.0
1070
   147
1040
0.0625
1070
    44
1040
0.0
1070
   140
1040
0.125
1070
     6
1000
_CLOSEDBLANK
1070
     7
1000
_CLOSEDBLANK
1002
}
  0
LEADER
  5
71
100
AcDbEntity
  8
FRONT
390
0
  6
Continuous
 62
    51
100
AcDbLeader
  3
Standard
 71
     0
 73
     3
 74
     1
 75
     1
 40
0.0
 76
     3
 10
94.204566
 20
0.0
 30
7.75
 10
101.756892
 20
0.0
 30
22.156193
 10
99.756892
 20
0.0
 30
22.156193
 77
   256
210
0.0
220
-1.0
230
0.0
1001
ACAD
1000
DSTYLE
1002
{
1070
   271
1070
     3
1070
   272
1070
     3
1070
   177
1070
    51
1070
   176
1070
    51
1070
   178
1070
    95
1070
    47
1040
0.005
1070
    48
1040
-0.005
1070
    41
1040
2.0
1070
   147
1040
0.0625
1070
    44
1040
0.0
1070
   140
1040
0.125
1070
     6
1000
_CLOSEDBLANK
1070
     7
1000
_CLOSEDBLANK
1002
}
  0
LINE
  5
72
100
AcDbEntity
  8
FRONT
390
0
  6
Continuous
 62
    51
100
AcDbLine
 10
94.204566
 20
7.75
 30
0.0
 11
94.423774
 21
9.808914
 31
0.0
  0
LINE
  5
73
100
AcDbEntity
  8
FRONT
390
0
  6
Continuous
 62
    51
100
AcDbLine
 10
94.204566
 20
7.75
 30
0.0
 11
95.423865
 21
9.423471
 31
0.0
  0
LINE
  5
74
100
AcDbEntity
  8
FRONT
390
0
  6
Continuous
 62
    51
100
AcDbLine
 10
94.423774
 20
9.808914
 30
0.0
 11
95.423865
 21
9.423471
 31
0.0
  0
MTEXT
  5
75
100
AcDbEntity
  8
FRONT
390
0
  6
Continuous
 62
    51
100
AcDbMText
 10
34.28529
 20
0.0
 30
14.765827
 40
2.0
 41
0.0
 71
     7
 72
     5
  1
\W01.000;Electrical Raceway
  7
blockfont
210
0.0
220
-1.0
230
0.0
 73
     2
 44
0.903614
  0
LEADER
  5
76
100
AcDbEntity
  8
FRONT
390
0
  6
Continuous
 62
    51
100
AcDbLeader
  3
Standard
 71
     0
 73
     3
 74
     1
 75
     1
 40
0.0
 76
     3
 10
33.94779
 20
0.0
 30
16.41166
 10
36.19779
 20
0.0
 30
16.41166
 10
34.19779
 20
0.0
 30
16.41166
 77
   256
210
0.0
220
-1.0
230
0.0
1001
ACAD
1000
DSTYLE
1002
{
1070
   271
1070
     3
1070
   272
1070
     3
1070
   177
1070
    51
1070
   176
1070
    51
1070
   178
1070
    95
1070
    47
1040
0.005
1070
    48
1040
-0.005
1070
    41
1040
2.0
1070
   147
1040
0.0625
1070
    44
1040
0.0
1070
   140
1040
0.125
1070
     6
1000
_CLOSEDBLANK
1070
     7
1000
_CLOSEDBLANK
1002
}
  0
LEADER
  5
77
100
AcDbEntity
  8
FRONT
390
0
  6
Continuous
 62
    51
100
AcDbLeader
  3
Standard
 71
     0
 73
     3
 74
     1
 75
     1
 40
0.0
 76
     3
 10
24.286762
 20
0.0
 30
21.75
 10
35.94779
 20
0.0
 30
16.41166
 10
33.94779
 20
0.0
 30
16.41166
 77
   256
210
0.0
220
-1.0
230
0.0
1001
ACAD
1000
DSTYLE
1002
{
1070
   271
1070
     3
1070
   272
1070
     3
1070
   177
1070
    51
1070
   176
1070
    51
1070
   178
1070
    95
1070
    47
1040
0.005
1070
    48
1040
-0.005
1070
    41
1040
2.0
1070
   147
1040
0.0625
1070
    44
1040
0.0
1070
   140
1040
0.125
1070
     6
1000
_CLOSEDBLANK
1070
     7
1000
_CLOSEDBLANK
1002
}
  0
LINE
  5
78
100
AcDbEntity
  8
FRONT
390
0
  6
Continuous
 62
    51
100
AcDbLine
 10
24.286762
 20
21.75
 30
0.0
 11
26.296475
 21
21.251773
 31
0.0
  0
LINE
  5
79
100
AcDbEntity
  8
FRONT
390
0
  6
Continuous
 62
    51
100
AcDbLine
 10
24.286762
 20
21.75
 30
0.0
 11
25.778114
 21
20.313663
 31
0.0
  0
LINE
  5
7A
100
AcDbEntity
  8
FRONT
390
0
  6
Continuous
 62
    51
100
AcDbLine
 10
26.296475
 20
21.251773
 30
0.0
 11
25.778114
 21
20.313663
 31
0.0
  0
MTEXT
  5
7B
100
AcDbEntity
  8
FRONT
390
0
  6
Continuous
 62
    51
100
AcDbMText
 10
46.676164
 20
0.0
 30
70.820613
 40
2.0
 41
0.0
 71
     7
 72
     5
  1
\W01.000;Moonroof
  7
blockfont
210
0.0
220
-1.0
230
0.0
 73
     2
 44
0.903614
  0
LEADER
  5
7C
100
AcDbEntity
  8
FRONT
390
0
  6
Continuous
 62
    51
100
AcDbLeader
  3
Standard
 71
     0
 73
     3
 74
     1
 75
     1
 40
0.0
 76
     3
 10
64.182414
 20
0.0
 30
72.466446
 10
65.932414
 20
0.0
 30
72.466446
 10
63.932414
 20
0.0
 30
72.466446
 77
   256
210
0.0
220
-1.0
230
0.0
1001
ACAD
1000
DSTYLE
1002
{
1070
   271
1070
     3
1070
   272
1070
     3
1070
   177
1070
    51
1070
   176
1070
    51
1070
   178
1070
    95
1070
    47
1040
0.005
1070
    48
1040
-0.005
1070
    41
1040
2.0
1070
   147
1040
0.0625
1070
    44
1040
0.0
1070
   140
1040
0.125
1070
     6
1000
_CLOSEDBLANK
1070
     7
1000
_CLOSEDBLANK
1002
}
  0
LEADER
  5
7D
100
AcDbEntity
  8
FRONT
390
0
  6
Continuous
 62
    51
100
AcDbLeader
  3
Standard
 71
     0
 73
     3
 74
     1
 75
     1
 40
0.0
 76
     3
 10
64.182414
 20
0.0
 30
72.466446
 10
73.989941
 20
0.0
 30
53.690889
 10
71.989941
 20
0.0
 30
53.690889
 77
   256
210
0.0
220
-1.0
230
0.0
1001
ACAD
1000
DSTYLE
1002
{
1070
   271
1070
     3
1070
   272
1070
     3
1070
   177
1070
    51
1070
   176
1070
    51
1070
   178
1070
    95
1070
    47
1040
0.005
1070
    48
1040
-0.005
1070
    41
1040
2.0
1070
   147
1040
0.0625
1070
    44
1040
0.0
1070
   140
1040
0.125
1070
     6
1000
_CLOSEDBLANK
1070
     7
1000
_CLOSEDBLANK
1002
}
  0
LINE
  5
7E
100
AcDbEntity
  8
FRONT
390
0
  6
Continuous
 62
    51
100
AcDbLine
 10
71.989941
 20
53.690889
 30
0.0
 11
70.727199
 21
55.331822
 31
0.0
  0
LINE
  5
7F
100
AcDbEntity
  8
FRONT
390
0
  6
Continuous
 62
    51
100
AcDbLine
 10
71.989941
 20
53.690889
 30
0.0
 11
71.71684
 21
55.743354
 31
0.0
  0
LINE
  5
80
100
AcDbEntity
  8
FRONT
390
0
  6
Continuous
 62
    51
100
AcDbLine
 10
70.727199
 20
55.331822
 30
0.0
 11
71.71684
 21
55.743354
 31
0.0
  0
MTEXT
  5
81
100
AcDbEntity
  8
FRONT
390
0
  6
Continuous
 62
    51
100
AcDbMText
 10
-40.915944
 20
0.0
 30
41.566764
 40
2.0
 41
0.0
 71
     7
 72
     5
  1
\W01.000;AC/DC Fridge
  7
blockfont
210
0.0
220
-1.0
230
0.0
 73
     2
 44
0.903614
  0
LEADER
  5
82
100
AcDbEntity
  8
FRONT
390
0
  6
Continuous
 62
    51
100
AcDbLeader
  3
Standard
 71
     0
 73
     3
 74
     1
 75
     1
 40
0.0
 76
     3
 10
-14.690944
 20
0.0
 30
43.212597
 10
-12.940944
 20
0.0
 30
43.212597
 10
-14.940944
 20
0.0
 30
43.212597
 77
   256
210
0.0
220
-1.0
230
0.0
1001
ACAD
1000
DSTYLE
1002
{
1070
   271
1070
     3
1070
   272
1070
     3
1070
   177
1070
    51
1070
   176
1070
    51
1070
   178
1070
    95
1070
    47
1040
0.005
1070
    48
1040
-0.005
1070
    41
1040
2.0
1070
   147
1040
0.0625
1070
    44
1040
0.0
1070
   140
1040
0.125
1070
     6
1000
_CLOSEDBLANK
1070
     7
1000
_CLOSEDBLANK
1002
}
  0
LEADER
  5
83
100
AcDbEntity
  8
FRONT
390
0
  6
Continuous
 62
    51
100
AcDbLeader
  3
Standard
 71
     0
 73
     3
 74
     1
 75
     1
 40
0.0
 76
     3
 10
-14.690944
 20
0.0
 30
43.212597
 10
5.396762
 20
0.0
 30
38.82
 10
3.396762
 20
0.0
 30
38.82
 77
   256
210
0.0
220
-1.0
230
0.0
1001
ACAD
1000
DSTYLE
1002
{
1070
   271
1070
     3
1070
   272
1070
     3
1070
   177
1070
    51
1070
   176
1070
    51
1070
   178
1070
    95
1070
    47
1040
0.005
1070
    48
1040
-0.005
1070
    41
1040
2.0
1070
   147
1040
0.0625
1070
    44
1040
0.0
1070
   140
1040
0.125
1070
     6
1000
_CLOSEDBLANK
1070
     7
1000
_CLOSEDBLANK
1002
}
  0
LINE
  5
84
100
AcDbEntity
  8
FRONT
390
0
  6
Continuous
 62
    51
100
AcDbLine
 10
3.396762
 20
38.82
 30
0.0
 11
1.326786
 21
38.771219
 31
0.0
  0
LINE
  5
85
100
AcDbEntity
  8
FRONT
390
0
  6
Continuous
 62
    51
100
AcDbLine
 10
3.396762
 20
38.82
 30
0.0
 11
1.579716
 21
39.812744
 31
0.0
  0
LINE
  5
86
100
AcDbEntity
  8
FRONT
390
0
  6
Continuous
 62
    51
100
AcDbLine
 10
1.326786
 20
38.771219
 30
0.0
 11
1.579716
 21
39.812744
 31
0.0
  0
MTEXT
  5
87
100
AcDbEntity
  8
FRONT
390
0
  6
Continuous
 62
    51
100
AcDbMText
 10
45.504673
 20
0.0
 30
46.008302
 40
2.0
 41
0.0
 71
     7
 72
     5
  1
\W01.000;Cabin Cabinette
  7
blockfont
210
0.0
220
-1.0
230
0.0
 73
     2
 44
0.903614
  0
LEADER
  5
88
100
AcDbEntity
  8
FRONT
390
0
  6
Continuous
 62
    51
100
AcDbLeader
  3
Standard
 71
     0
 73
     3
 74
     1
 75
     1
 40
0.0
 76
     3
 10
45.167173
 20
0.0
 30
47.654136
 10
47.417173
 20
0.0
 30
47.654136
 10
45.417173
 20
0.0
 30
47.654136
 77
   256
210
0.0
220
-1.0
230
0.0
1001
ACAD
1000
DSTYLE
1002
{
1070
   271
1070
     3
1070
   272
1070
     3
1070
   177
1070
    51
1070
   176
1070
    51
1070
   178
1070
    95
1070
    47
1040
0.005
1070
    48
1040
-0.005
1070
    41
1040
2.0
1070
   147
1040
0.0625
1070
    44
1040
0.0
1070
   140
1040
0.125
1070
     6
1000
_CLOSEDBLANK
1070
     7
1000
_CLOSEDBLANK
1002
}
  0
LEADER
  5
89
100
AcDbEntity
  8
FRONT
390
0
  6
Continuous
 62
    51
100
AcDbLeader
  3
Standard
 71
     0
 73
     3
 74
     1
 75
     1
 40
0.0
 76
     3
 10
45.167173
 20
0.0
 30
47.654136
 10
36.146762
 20
0.0
 30
40.85
 10
34.146762
 20
0.0
 30
40.85
 77
   256
210
0.0
220
-1.0
230
0.0
1001
ACAD
1000
DSTYLE
1002
{
1070
   271
1070
     3
1070
   272
1070
     3
1070
   177
1070
    51
1070
   176
1070
    51
1070
   178
1070
    95
1070
    47
1040
0.005
1070
    48
1040
-0.005
1070
    41
1040
2.0
1070
   147
1040
0.0625
1070
    44
1040
0.0
1070
   140
1040
0.125
1070
     6
1000
_CLOSEDBLANK
1070
     7
1000
_CLOSEDBLANK
1002
}
  0
LINE
  5
8A
100
AcDbEntity
  8
FRONT
390
0
  6
Continuous
 62
    51
100
AcDbLine
 10
34.146762
 20
40.85
 30
0.0
 11
35.567002
 21
42.356685
 31
0.0
  0
LINE
  5
8B
100
AcDbEntity
  8
FRONT
390
0
  6
Continuous
 62
    51
100
AcDbLine
 10
34.146762
 20
40.85
 30
0.0
 11
36.130071
 21
41.444708
 31
0.0
  0
LINE
  5
8C
100
AcDbEntity
  8
FRONT
390
0
  6
Continuous
 62
    51
100
AcDbLine
 10
35.567002
 20
42.356685
 30
0.0
 11
36.130071
 21
41.444708
 31
0.0
  0
MTEXT
  5
8D
100
AcDbEntity
  8
FRONT
390
0
  6
Continuous
 62
    51
100
AcDbMText
 10
38.543374
 20
0.0
 30
-32.692117
 40
2.0
 41
0.0
 71
     7
 72
     5
  1
\W01.000;9' 3" Long Modified Grasshopper\PMike Schneider\Pmykes@comcast.net\P06AP03
  7
blockfont
210
0.0
220
-1.0
230
0.0
 73
     2
 44
0.903614
  0
MTEXT
  5
8E
100
AcDbEntity
  8
FRONT
390
0
  6
Continuous
 62
    51
100
AcDbMText
 10
36.064249
 20
0.0
 30
76.460273
 40
2.0
 41
0.0
 71
     7
 72
     5
  1
\W01.000;Grasshopper Slope
  7
blockfont
210
0.0
220
-1.0
230
0.0
 73
     2
 44
0.903614
  0
LEADER
  5
8F
100
AcDbEntity
  8
FRONT
390
0
  6
Continuous
 62
    51
100
AcDbLeader
  3
Standard
 71
     0
 73
     3
 74
     1
 75
     1
 40
0.0
 76
     3
 10
73.195499
 20
0.0
 30
78.106107
 10
74.945499
 20
0.0
 30
78.106107
 10
72.945499
 20
0.0
 30
78.106107
 77
   256
210
0.0
220
-1.0
230
0.0
1001
ACAD
1000
DSTYLE
1002
{
1070
   271
1070
     3
1070
   272
1070
     3
1070
   177
1070
    51
1070
   176
1070
    51
1070
   178
1070
    95
1070
    47
1040
0.005
1070
    48
1040
-0.005
1070
    41
1040
2.0
1070
   147
1040
0.0625
1070
    44
1040
0.0
1070
   140
1040
0.125
1070
     6
1000
_CLOSEDBLANK
1070
     7
1000
_CLOSEDBLANK
1002
}
  0
LEADER
  5
90
100
AcDbEntity
  8
FRONT
390
0
  6
Continuous
 62
    51
100
AcDbLeader
  3
Standard
 71
     0
 73
     3
 74
     1
 75
     1
 40
0.0
 76
     3
 10
73.195499
 20
0.0
 30
78.106107
 10
79.572129
 20
0.0
 30
52.386311
 10
77.572129
 20
0.0
 30
52.386311
 77
   256
210
0.0
220
-1.0
230
0.0
1001
ACAD
1000
DSTYLE
1002
{
1070
   271
1070
     3
1070
   272
1070
     3
1070
   177
1070
    51
1070
   176
1070
    51
1070
   178
1070
    95
1070
    47
1040
0.005
1070
    48
1040
-0.005
1070
    41
1040
2.0
1070
   147
1040
0.0625
1070
    44
1040
0.0
1070
   140
1040
0.125
1070
     6
1000
_CLOSEDBLANK
1070
     7
1000
_CLOSEDBLANK
1002
}
  0
LINE
  5
91
100
AcDbEntity
  8
FRONT
390
0
  6
Continuous
 62
    51
100
AcDbLine
 10
77.572129
 20
52.386311
 30
0.0
 11
76.708317
 21
54.268067
 31
0.0
  0
LINE
  5
92
100
AcDbEntity
  8
FRONT
390
0
  6
Continuous
 62
    51
100
AcDbLine
 10
77.572129
 20
52.386311
 30
0.0
 11
77.764924
 21
54.44787
 31
0.0
  0
LINE
  5
93
100
AcDbEntity
  8
FRONT
390
0
  6
Continuous
 62
    51
100
AcDbLine
 10
76.708317
 20
54.268067
 30
0.0
 11
77.764924
 21
54.44787
 31
0.0
  0
DIMENSION
  5
A2
100
AcDbEntity
  8
FRONT
390
0
100
AcDbDimension
  2
_D0
 10
49.657088
 20
65.996074
 30
0.0
 11
49.657088
 21
65.996074
 31
0.0
 12
0.0
 22
0.0
 32
0.0
 70
    32
 71
     5
 72
     1
 41
1.0
 42
0.0
  1
 <> 
  3
Standard
100
AcDbAlignedDimension
 13
-4.792139
 23
19.702572
 33
0.0
 14
106.207861
 24
18.0625
 34
0.0
100
AcDbRotatedDimension
1001
ACAD
1000
DSTYLE
1002
{
1070
   271
1070
     1
1070
   272
1070
     3
1070
   177
1070
    51
1070
   176
1070
    51
1070
   178
1070
    51
1070
    47
1040
0.005
1070
    48
1040
-0.005
1070
    41
1040
2.0
1070
   147
1040
0.0625
1070
    44
1040
0.125
1070
   140
1040
2.0
1070
     6
1000
_CLOSEDBLANK
1070
     7
1000
_CLOSEDBLANK
1002
}
  0
DIMENSION
  5
B1
100
AcDbEntity
  8
FRONT
390
0
100
AcDbDimension
  2
_D1
 10
14.327714
 20
61.758479
 30
0.0
 11
14.327714
 21
61.758479
 31
0.0
 12
0.0
 22
0.0
 32
0.0
 70
    32
 71
     5
 72
     1
 41
1.0
 42
0.0
  1
 <> 
  3
Standard
100
AcDbAlignedDimension
 13
8.396762
 23
52.3125
 33
0.0
 14
20.396762
 24
52.3125
 34
0.0
100
AcDbRotatedDimension
1001
ACAD
1000
DSTYLE
1002
{
1070
   271
1070
     1
1070
   272
1070
     3
1070
   177
1070
    51
1070
   176
1070
    51
1070
   178
1070
    51
1070
    47
1040
0.005
1070
    48
1040
-0.005
1070
    41
1040
2.0
1070
   147
1040
0.0625
1070
    44
1040
0.125
1070
   140
1040
2.0
1070
     6
1000
_CLOSEDBLANK
1070
     7
1000
_CLOSEDBLANK
1002
}
  0
DIMENSION
  5
BF
100
AcDbEntity
  8
FRONT
390
0
100
AcDbDimension
  2
_D2
 10
-13.43463
 20
-0.529259
 30
0.0
 11
-13.43463
 21
-0.529259
 31
0.0
 12
0.0
 22
0.0
 32
0.0
 70
    32
 71
     0
 72
     0
 41
0.0
 42
0.0
210
0.0
220
-1.0
230
0.0
  1
 <> 
  3
Standard
100
AcDbAlignedDimension
 13
-2.665738
 23
19.5
 33
0.0
 14
-13.43463
 24
-16.5
 34
0.0
 50
90.0
100
AcDbRotatedDimension
1001
ACAD
1000
DSTYLE
1002
{
1070
   271
1070
     1
1070
   272
1070
     3
1070
   177
1070
    51
1070
   176
1070
    51
1070
   178
1070
    51
1070
    47
1040
0.005
1070
    48
1040
-0.005
1070
    41
1040
2.0
1070
   147
1040
0.0625
1070
    44
1040
0.125
1070
   140
1040
2.0
1070
     6
1000
_CLOSEDBLANK
1070
     7
1000
_CLOSEDBLANK
1002
}
  0
DIMENSION
  5
CD
100
AcDbEntity
  8
FRONT
390
0
100
AcDbDimension
  2
_D3
 10
61.024265
 20
10.3361
 30
0.0
 11
61.024265
 21
10.3361
 31
0.0
 12
0.0
 22
0.0
 32
0.0
 70
    32
 71
     5
 72
     1
 41
1.0
 42
0.0
  1
 <> 
  3
Standard
100
AcDbAlignedDimension
 13
101.405338
 23
7.8125
 33
0.0
 14
21.396762
 24
10.3361
 34
0.0
100
AcDbRotatedDimension
1001
ACAD
1000
DSTYLE
1002
{
1070
   271
1070
     1
1070
   272
1070
     3
1070
   177
1070
    51
1070
   176
1070
    51
1070
   178
1070
    51
1070
    47
1040
0.005
1070
    48
1040
-0.005
1070
    41
1040
2.0
1070
   147
1040
0.0625
1070
    44
1040
0.125
1070
   140
1040
2.0
1070
     6
1000
_CLOSEDBLANK
1070
     7
1000
_CLOSEDBLANK
1002
}
  0
DIMENSION
  5
DC
100
AcDbEntity
  8
FRONT
390
0
100
AcDbDimension
  2
_D4
 10
9.351989
 20
-4.509124
 30
0.0
 11
9.351989
 21
-4.509124
 31
0.0
 12
0.0
 22
0.0
 32
0.0
 70
    32
 71
     5
 72
     1
 41
1.0
 42
0.0
  1
 <> 
  3
Standard
100
AcDbAlignedDimension
 13
-3.603238
 23
17.9375
 33
0.0
 14
20.396762
 24
3.6875
 34
0.0
100
AcDbRotatedDimension
1001
ACAD
1000
DSTYLE
1002
{
1070
   271
1070
     1
1070
   272
1070
     3
1070
   177
1070
    51
1070
   176
1070
    51
1070
   178
1070
    51
1070
    47
1040
0.005
1070
    48
1040
-0.005
1070
    41
1040
2.0
1070
   147
1040
0.0625
1070
    44
1040
0.125
1070
   140
1040
2.0
1070
     6
1000
_CLOSEDBLANK
1070
     7
1000
_CLOSEDBLANK
1002
}
  0
DIMENSION
  5
EB
100
AcDbEntity
  8
FRONT
390
0
100
AcDbDimension
  2
_D5
 10
-13.613462
 20
27.90489
 30
0.0
 11
-13.613462
 21
27.90489
 31
0.0
 12
0.0
 22
0.0
 32
0.0
 70
    32
 71
     0
 72
     0
 41
0.0
 42
0.0
210
0.0
220
-1.0
230
0.0
  1
 <> 
  3
Standard
100
AcDbAlignedDimension
 13
-2.665738
 23
19.5
 33
0.0
 14
7.584262
 24
35.5
 34
0.0
 50
90.0
100
AcDbRotatedDimension
1001
ACAD
1000
DSTYLE
1002
{
1070
   271
1070
     1
1070
   272
1070
     3
1070
   177
1070
    51
1070
   176
1070
    51
1070
   178
1070
    51
1070
    47
1040
0.005
1070
    48
1040
-0.005
1070
    41
1040
2.0
1070
   147
1040
0.0625
1070
    44
1040
0.125
1070
   140
1040
2.0
1070
     6
1000
_CLOSEDBLANK
1070
     7
1000
_CLOSEDBLANK
1002
}
  0
ENDSEC
  0
SECTION
  2
OBJECTS
  0
DICTIONARY
  5
19
100
AcDbDictionary
280
     0
281
     1
  3
ACAD_GROUP
350
1A
  3
ACAD_MLINESTYLE
350
1B
  3
ACAD_LAYOUT
350
1E
  3
ACAD_PLOTSETTINGS
350
22
  3
ACAD_PLOTSTYLENAME
350
1F
  3
ACAD_WIPEOUT_VARS
350
23
  0
DICTIONARY
  5
1A
102
{ACAD_REACTORS
330
19
102
}
100
AcDbDictionary
280
     0
281
     1
  0
DICTIONARY
  5
1B
102
{ACAD_REACTORS
330
19
102
}
100
AcDbDictionary
280
     0
281
     1
  3
Standard
350
1C
  0
MLINESTYLE
  5
1C
102
{ACAD_REACTORS
330
1B
102
}
100
AcDbMlineStyle
  2
Standard
 70
     0
  3

 62
     0
 51
90.0
 52
90.0
 71
     2
 49
0.5
 62
   256
  6
ByLayer
 49
-0.5
 62
   256
  6
ByLayer
  0
ACDBDICTIONARYWDFLT
  5
1F
102
{ACAD_REACTORS
330
19
102
}
100
AcDbDictionary
281
     1
  3
Normal
350
1D
100
AcDbDictionaryWithDefault
340
1D
  0
ACDBPLACEHOLDER
  5
1D
102
{ACAD_REACTORS
330
1F
102
}
  0
LAYOUT
  5
20
102
{ACAD_REACTORS
330
1E
102
}
100
AcDbPlotSettings
  1

  2

  4

  6

 40
0.0
 41
0.0
 42
0.0
 43
0.0
 44
0.0
 45
0.0
 46
0.0
 47
0.0
 48
0.0
 49
0.0
140
0.0
141
0.0
142
1.0
143
1.0
 70
  1024
 72
     0
 73
     0
 74
     0
  7

 75
     0
147
1.0
148
0.0
149
0.0
100
AcDbLayout
  1
Model
 70
     0
 71
     0
 10
0.0
 20
0.0
 11
0.0
 21
0.0
 12
0.0
 22
0.0
 32
0.0
 14
0.0
 24
0.0
 34
0.0
 15
0.0
 25
0.0
 35
0.0
146
0.0
 13
0.0
 23
0.0
 33
0.0
 16
0.0
 26
0.0
 36
0.0
 17
0.0
 27
0.0
 37
0.0
 76
     0
330
A
331
0
345
0
346
0
  0
LAYOUT
  5
21
102
{ACAD_REACTORS
330
1E
102
}
100
AcDbPlotSettings
  1

  2

  4

  6

 40
0.0
 41
0.0
 42
0.0
 43
0.0
 44
0.0
 45
0.0
 46
0.0
 47
0.0
 48
0.0
 49
0.0
140
0.0
141
0.0
142
1.0
143
1.0
 70
     0
 72
     0
 73
     0
 74
     0
  7

 75
     0
147
1.0
148
0.0
149
0.0
100
AcDbLayout
  1
Layout1
 70
     0
 71
     0
 10
0.0
 20
0.0
 11
0.0
 21
0.0
 12
0.0
 22
0.0
 32
0.0
 14
0.0
 24
0.0
 34
0.0
 15
0.0
 25
0.0
 35
0.0
146
0.0
 13
0.0
 23
0.0
 33
0.0
 16
0.0
 26
0.0
 36
0.0
 17
0.0
 27
0.0
 37
0.0
 76
     0
330
B
331
0
345
0
346
0
  0
DICTIONARY
  5
1E
102
{ACAD_REACTORS
330
19
102
}
100
AcDbDictionary
280
     0
281
     1
  3
Layout1
350
21
  3
Model
350
20
  0
DICTIONARY
  5
22
102
{ACAD_REACTORS
330
19
102
}
100
AcDbDictionary
280
     0
281
     1
  0
WIPEOUTVARIABLES
  5
23
100
AcDbWipeoutVariables
 70
     1
  0
ENDSEC
  0
EOF
